daily pastebin goal
26%
SHARE
TWEET

Untitled

a guest May 19th, 2017 242 Never
Not a member of Pastebin yet? Sign Up, it unlocks many cool features!
  1. General
  2. Complete Name : C:\Users\Trevor\Desktop\Upload\Pulp Fiction\Pulp Fiction Upload\Pulp.Fiction.1994.Bluray.1080p.DTS.x264.dxva-FTW-HD.mkv
  3. Format : Matroska
  4. File Size : 13.9 GiB
  5. Duration : 2h 34mn
  6. Overall bit rate : 12.9 Mbps
  7. Encoded date : UTC 2010-04-05 22:25:54
  8. Writing application : mkvmerge v3.3.0 ('Language') built on Mar 24 2010 14:59:24
  9. Writing library : libebml v0.8.0 + libmatroska v0.9.0
  10.  
  11. Video
  12. ID : 1
  13. Format : AVC
  14. Format/Info : Advanced Video Codec
  15. Format profile : High@L4.1
  16. Format settings, CABAC : Yes
  17. Format settings, ReFrames : 5 frames
  18. Muxing mode : Container profile=Unknown@4.1
  19. Codec ID : V_MPEG4/ISO/AVC
  20. Duration : 2h 34mn
  21. Bit rate : 11.1 Mbps
  22. Width: 1 920 pixels
  23. Height: 816 pixels
  24. Display aspect ratio : 2.35:1
  25. Frame Rate: 23.976 fps
  26. Resolution : 8 bits
  27. Colorimetry : 4:2:0
  28. Scan type : Progressive
  29. Bits/(Pixel*Frame) : 0.296
  30. Stream size : 12.0 GiB (86%)
  31. Writing library : x264 core 92 r1510 33d382a
  32. Encoding settings : cabac=1 / ref=5 / deblock=1:-3:-3 / analyse=0x3:0x113 / me=umh / subme=10 / psy=1 / psy_rd=1.00:0.00 / mixed_ref=1 / me_range=64 / chroma_me=1 / trellis=2 / 8x8dct=1 / cqm=0 / deadzone=21,11 / fast_pskip=0 / chroma_qp_offset=-2 / threads=6 / sliced_threads=0 / nr=0 / decimate=1 / interlaced=0 / constrained_intra=0 / bframes=5 /b_pyramid=0 / b_adapt=2 / b_bias=0 / direct=1 / wpredb=1 / wpredp=2 / keyint=250 / keyint_min=25 / scenecut=40 / intra_refresh=0 / rc_lookahead=60 / rc=crf / mbtree=1 / crf=18.0 / qcomp=0.80 / qpmin=10 / qpmax=51 / qpstep=4 / vbv_maxrate=38000 / vbv_bufsize=30000 / crf-max=0.000000 / ip_ratio=1.40 / aq=1:0.90 / nal_hrd=none
  33. Language : English
  34.  
  35. Audio
  36. ID : 2
  37. Format : DTS
  38. Format/Info : Digital Theater Systems
  39. Codec ID : A_DTS
  40. Duration : 2h 34mn
  41. Bit rate mode : Constant
  42. Bit rate : 1 510 Kbps
  43. Channel(s) : 6 channels
  44. Channel positions : Front: L C R, Surround: L R, LFE
  45. Sampling rate : 48.0 KHz
  46. Resolution : 24 bits
  47. Stream size : 1.63 GiB (12%)
  48. Language : English
  49.  
  50. Text
  51. ID : 3
  52. Format : UTF-8
  53. Codec ID : S_TEXT/UTF8
  54. Codec ID/Info : UTF-8 Plain Text
  55. Language : English
  56.  
  57. Menu
  58. 00:00:00.000 : en:00:00:00.000
  59. 00:08:49.946 : en:00:08:49.946
  60. 00:11:24.558 : en:00:11:24.558
  61. 00:17:58.869 : en:00:17:58.869
  62. 00:26:23.164 : en:00:26:23.164
  63. 00:32:58.309 : en:00:32:58.309
  64. 00:42:41.725 : en:00:42:41.725
  65. 00:53:57.692 : en:00:53:57.692
  66. 01:02:23.281 : en:01:02:23.281
  67. 01:11:54.476 : en:01:11:54.476
  68. 01:19:20.964 : en:01:19:20.964
  69. 01:25:57.569 : en:01:25:57.569
  70. 01:34:35.753 : en:01:34:35.753
  71. 01:43:14.479 : en:01:43:14.479
  72. 01:52:33.371 : en:01:52:33.371
  73. 01:58:36.442 : en:01:58:36.442
  74. 02:01:58.269 : en:02:01:58.269
  75. 02:08:53.851 : en:02:08:53.851
  76. 02:19:31.613 : en:02:19:31.613
  77. 02:30:30.938 : en:02:30:30.938
  78. 02:37:44.580 : en:02:37:44.580
  79. 02:46:39.155 : en:02:46:39.155
  80. 02:54:15.111 : en:02:54:15.111
RAW Paste Data
Top