Guest User

Winters.Bone.2010.1080p.BluRay.REMUX.AVC.TrueHD.5.1-EPSiLON

a guest
May 21st, 2019
43
Never
Not a member of Pastebin yet? Sign Up, it unlocks many cool features!
  1. General
  2. Unique ID                                : 120627769155568448645613511237618443759 (0x5AC01032BBD053C748F797E89EE925EF)
  3. Complete name                            : Winters.Bone.2010.1080p.BluRay.REMUX.AVC.TrueHD.5.1-EPSiLON-Obfuscated.mkv
  4. Format                                   : Matroska
  5. Format version                           : Version 4
  6. File size                                : 29.5 GiB
  7. Duration                                 : 1 h 39 min
  8. Overall bit rate mode                    : Variable
  9. Overall bit rate                         : 42.2 Mb/s
  10. Encoded date                             : UTC 2018-02-17 16:51:00
  11. Writing application                      : mkvmerge v20.0.0 ('I Am The Sun') 64-bit
  12. Writing library                          : libebml v1.3.5 + libmatroska v1.4.8
  13.  
  14. Video
  15. ID                                       : 1
  16. Format                                   : AVC
  17. Format/Info                              : Advanced Video Codec
  18. Format profile                           : High@L4.1
  19. Format settings                          : CABAC / 4 Ref Frames
  20. Format settings, CABAC                   : Yes
  21. Format settings, Reference frames        : 4 frames
  22. Codec ID                                 : V_MPEG4/ISO/AVC
  23. Duration                                 : 1 h 39 min
  24. Bit rate mode                            : Variable
  25. Bit rate                                 : 38.5 Mb/s
  26. Maximum bit rate                         : 40.0 Mb/s
  27. Width                                    : 1 920 pixels
  28. Height                                   : 1 080 pixels
  29. Display aspect ratio                     : 16:9
  30. Frame rate mode                          : Constant
  31. Frame rate                               : 23.976 (24000/1001) FPS
  32. Color space                              : YUV
  33. Chroma subsampling                       : 4:2:0
  34. Bit depth                                : 8 bits
  35. Scan type                                : Progressive
  36. Bits/(Pixel*Frame)                       : 0.775
  37. Stream size                              : 26.9 GiB (91%)
  38. Title                                    : MPEG-4 AVC Video / 39002 kbps / 1080p / 23.976 fps / 16:9 / High Profile 4.1
  39. Language                                 : English
  40. Default                                  : Yes
  41. Forced                                   : No
  42.  
  43. Audio #1
  44. ID                                       : 2
  45. Format                                   : MLP FBA
  46. Format/Info                              : Meridian Lossless Packing FBA
  47. Commercial name                          : Dolby TrueHD
  48. Codec ID                                 : A_TRUEHD
  49. Duration                                 : 1 h 39 min
  50. Bit rate mode                            : Variable
  51. Bit rate                                 : 2 697 kb/s
  52. Maximum bit rate                         : 3 975 kb/s
  53. Channel(s)                               : 6 channels
  54. Channel layout                           : L R C LFE Ls Rs
  55. Sampling rate                            : 48.0 kHz
  56. Frame rate                               : 1 200.000 FPS (40 SPF)
  57. Compression mode                         : Lossless
  58. Stream size                              : 1.88 GiB (6%)
  59. Title                                    : Dolby TrueHD Audio / 5.1 / 48 kHz / 2697 kbps / 24-bit
  60. Language                                 : English
  61. Default                                  : Yes
  62. Forced                                   : No
  63.  
  64. Audio #2
  65. ID                                       : 3
  66. Format                                   : AC-3
  67. Format/Info                              : Audio Coding 3
  68. Commercial name                          : Dolby Digital
  69. Codec ID                                 : A_AC3
  70. Duration                                 : 1 h 39 min
  71. Bit rate mode                            : Constant
  72. Bit rate                                 : 448 kb/s
  73. Channel(s)                               : 6 channels
  74. Channel layout                           : L R C LFE Ls Rs
  75. Sampling rate                            : 48.0 kHz
  76. Frame rate                               : 31.250 FPS (1536 SPF)
  77. Bit depth                                : 16 bits
  78. Compression mode                         : Lossy
  79. Stream size                              : 320 MiB (1%)
  80. Title                                    : Compatibility Track / Dolby Digital Audio / 5.1 / 48 kHz / 448 kbps
  81. Language                                 : English
  82. Service kind                             : Complete Main
  83. Default                                  : No
  84. Forced                                   : No
  85.  
  86. Audio #3
  87. ID                                       : 4
  88. Format                                   : AAC LC
  89. Format/Info                              : Advanced Audio Codec Low Complexity
  90. Codec ID                                 : A_AAC-2
  91. Duration                                 : 1 h 39 min
  92. Bit rate                                 : 192 kb/s
  93. Channel(s)                               : 2 channels
  94. Channel layout                           : L R
  95. Sampling rate                            : 48.0 kHz
  96. Frame rate                               : 46.875 FPS (1024 SPF)
  97. Compression mode                         : Lossy
  98. Delay relative to video                  : 904 ms
  99. Stream size                              : 137 MiB (0%)
  100. Title                                    : Commentary by director Debra Granik and director of photography Michael McDonough
  101. Language                                 : English
  102. Default                                  : No
  103. Forced                                   : No
  104.  
  105. Text #1
  106. ID                                       : 5
  107. Format                                   : PGS
  108. Codec ID                                 : S_HDMV/PGS
  109. Codec ID/Info                            : Picture based subtitle format used on BDs/HD-DVDs
  110. Duration                                 : 1 h 38 min
  111. Bit rate                                 : 26.5 kb/s
  112. Count of elements                        : 1982
  113. Stream size                              : 18.7 MiB (0%)
  114. Language                                 : English
  115. Default                                  : No
  116. Forced                                   : No
  117.  
  118. Text #2
  119. ID                                       : 6
  120. Format                                   : PGS
  121. Codec ID                                 : S_HDMV/PGS
  122. Codec ID/Info                            : Picture based subtitle format used on BDs/HD-DVDs
  123. Duration                                 : 1 h 39 min
  124. Bit rate                                 : 69.4 kb/s
  125. Count of elements                        : 2242
  126. Stream size                              : 49.5 MiB (0%)
  127. Title                                    : SDH
  128. Language                                 : English
  129. Default                                  : No
  130. Forced                                   : No
  131.  
  132. Text #3
  133. ID                                       : 7
  134. Format                                   : PGS
  135. Codec ID                                 : S_HDMV/PGS
  136. Codec ID/Info                            : Picture based subtitle format used on BDs/HD-DVDs
  137. Duration                                 : 1 h 33 min
  138. Bit rate                                 : 14.3 kb/s
  139. Count of elements                        : 1450
  140. Stream size                              : 9.60 MiB (0%)
  141. Language                                 : German
  142. Default                                  : No
  143. Forced                                   : No
  144.  
  145. Text #4
  146. ID                                       : 8
  147. Format                                   : PGS
  148. Codec ID                                 : S_HDMV/PGS
  149. Codec ID/Info                            : Picture based subtitle format used on BDs/HD-DVDs
  150. Duration                                 : 1 h 37 min
  151. Bit rate                                 : 94.6 kb/s
  152. Count of elements                        : 4244
  153. Stream size                              : 65.9 MiB (0%)
  154. Language                                 : Japanese
  155. Default                                  : No
  156. Forced                                   : No
  157.  
  158. Text #5
  159. ID                                       : 9
  160. Format                                   : PGS
  161. Codec ID                                 : S_HDMV/PGS
  162. Codec ID/Info                            : Picture based subtitle format used on BDs/HD-DVDs
  163. Duration                                 : 1 h 38 min
  164. Bit rate                                 : 62.6 kb/s
  165. Count of elements                        : 1772
  166. Stream size                              : 44.1 MiB (0%)
  167. Title                                    : Latin American
  168. Language                                 : Spanish
  169. Default                                  : No
  170. Forced                                   : No
  171.  
  172. Text #6
  173. ID                                       : 10
  174. Format                                   : PGS
  175. Codec ID                                 : S_HDMV/PGS
  176. Codec ID/Info                            : Picture based subtitle format used on BDs/HD-DVDs
  177. Duration                                 : 1 h 39 min
  178. Bit rate                                 : 35.0 kb/s
  179. Count of elements                        : 1446
  180. Stream size                              : 24.9 MiB (0%)
  181. Title                                    : Commentary by director Debra Granik and director of photography Michael McDonough
  182. Language                                 : German
  183. Default                                  : No
  184. Forced                                   : No
  185.  
  186. Menu
  187. 00:00:00.000                             : en:Wake Up
  188. 00:10:01.351                             : en:Saw The Law Here
  189. 00:18:47.501                             : en:My Dad's Jessup
  190. 00:28:02.806                             : en:Get in the truck
  191. 00:35:33.590                             : en:I'm Looking for Dad
  192. 00:46:13.896                             : en:Now He's a Runner
  193. 00:58:19.955                             : en:You Understand?
  194. 01:05:12.200                             : en:U.S. Army
  195. 01:15:52.173                             : en:You're Smart
  196. 01:19:17.503                             : en:Fix Your Problem
  197. 01:26:33.355                             : en:Come on Back
  198. 01:31:05.168                             : en:It's Been A Long Time
RAW Paste Data