Guest User

Assassination.of.a.High.School.President.2008.1080p.BluRay.REMUX.AVC.DTS-HD.MA.5.1-EPSiLON

a guest
May 19th, 2019
135
Never
Not a member of Pastebin yet? Sign Up, it unlocks many cool features!
  1. General
  2. Complete name                            : Assassination.of.a.High.School.President.2008.1080p.BluRay.REMUX.AVC.DTS-HD.MA.5.1-EPSiLON.mkv
  3. Format                                   : Matroska
  4. Format version                           : Version 4
  5. File size                                : 21.8 GiB
  6. Duration                                 : 1 h 33 min
  7. Overall bit rate mode                    : Variable
  8. Overall bit rate                         : 33.4 Mb/s
  9. Encoded date                             : UTC 2018-12-26 07:28:22
  10. Writing application                      : mkvmerge v27.0.0 ('Metropolis') 64-bit
  11. Writing library                          : libebml v1.3.6 + libmatroska v1.4.9
  12.  
  13. Video
  14. ID                                       : 1
  15. Format                                   : AVC
  16. Format/Info                              : Advanced Video Codec
  17. Format profile                           : High@L4.1
  18. Format settings                          : CABAC / 4 Ref Frames
  19. Format settings, CABAC                   : Yes
  20. Format settings, Reference frames        : 4 frames
  21. Codec ID                                 : V_MPEG4/ISO/AVC
  22. Duration                                 : 1 h 33 min
  23. Bit rate mode                            : Variable
  24. Bit rate                                 : 30.0 Mb/s
  25. Maximum bit rate                         : 35.0 Mb/s
  26. Width                                    : 1 920 pixels
  27. Height                                   : 1 080 pixels
  28. Display aspect ratio                     : 16:9
  29. Frame rate mode                          : Constant
  30. Frame rate                               : 24.000 FPS
  31. Color space                              : YUV
  32. Chroma subsampling                       : 4:2:0
  33. Bit depth                                : 8 bits
  34. Scan type                                : Progressive
  35. Bits/(Pixel*Frame)                       : 0.602
  36. Stream size                              : 19.5 GiB (90%)
  37. Title                                    : MPEG-4 AVC Video / 29994 kbps / 1080p / 24 fps / 16:9 / High Profile 4.1
  38. Language                                 : English
  39. Default                                  : Yes
  40. Forced                                   : No
  41. Color range                              : Limited
  42. Color primaries                          : BT.709
  43. Transfer characteristics                 : BT.709
  44. Matrix coefficients                      : BT.709
  45.  
  46. Audio #1
  47. ID                                       : 2
  48. Format                                   : DTS XLL
  49. Format/Info                              : Digital Theater Systems
  50. Commercial name                          : DTS-HD Master Audio
  51. Codec ID                                 : A_DTS
  52. Duration                                 : 1 h 33 min
  53. Bit rate mode                            : Variable
  54. Bit rate                                 : 3 127 kb/s
  55. Channel(s)                               : 6 channels
  56. Channel layout                           : C L R Ls Rs LFE
  57. Sampling rate                            : 48.0 kHz
  58. Frame rate                               : 93.750 FPS (512 SPF)
  59. Bit depth                                : 24 bits
  60. Compression mode                         : Lossless
  61. Delay relative to video                  : 10 s 885 ms
  62. Stream size                              : 2.03 GiB (9%)
  63. Title                                    : DTS-HD Master Audio / 5.1 / 48 kHz / 3127 kbps / 24-bit
  64. Language                                 : English
  65. Default                                  : Yes
  66. Forced                                   : No
  67.  
  68. Audio #2
  69. ID                                       : 3
  70. Format                                   : AC-3
  71. Format/Info                              : Audio Coding 3
  72. Commercial name                          : Dolby Digital
  73. Codec ID                                 : A_AC3
  74. Duration                                 : 1 h 33 min
  75. Bit rate mode                            : Constant
  76. Bit rate                                 : 224 kb/s
  77. Channel(s)                               : 2 channels
  78. Channel layout                           : L R
  79. Sampling rate                            : 48.0 kHz
  80. Frame rate                               : 31.250 FPS (1536 SPF)
  81. Bit depth                                : 16 bits
  82. Compression mode                         : Lossy
  83. Stream size                              : 149 MiB (1%)
  84. Title                                    : Commentary by director Brett Simon, writers Kevin Jakubowski and Tim Calpin
  85. Language                                 : English
  86. Service kind                             : Complete Main
  87. Default                                  : No
  88. Forced                                   : No
  89.  
  90. Text #1
  91. ID                                       : 4
  92. Format                                   : PGS
  93. Codec ID                                 : S_HDMV/PGS
  94. Codec ID/Info                            : Picture based subtitle format used on BDs/HD-DVDs
  95. Duration                                 : 1 h 32 min
  96. Bit rate                                 : 64.0 kb/s
  97. Count of elements                        : 2749
  98. Stream size                              : 42.2 MiB (0%)
  99. Title                                    : SDH
  100. Language                                 : English
  101. Default                                  : No
  102. Forced                                   : No
  103.  
  104. Text #2
  105. ID                                       : 5
  106. Format                                   : PGS
  107. Codec ID                                 : S_HDMV/PGS
  108. Codec ID/Info                            : Picture based subtitle format used on BDs/HD-DVDs
  109. Duration                                 : 1 h 26 min
  110. Bit rate                                 : 33.6 kb/s
  111. Count of elements                        : 2326
  112. Stream size                              : 20.7 MiB (0%)
  113. Language                                 : French
  114. Default                                  : No
  115. Forced                                   : No
  116.  
  117. Text #3
  118. ID                                       : 6
  119. Format                                   : PGS
  120. Codec ID                                 : S_HDMV/PGS
  121. Codec ID/Info                            : Picture based subtitle format used on BDs/HD-DVDs
  122. Duration                                 : 1 h 26 min
  123. Bit rate                                 : 62.2 kb/s
  124. Count of elements                        : 2608
  125. Stream size                              : 38.4 MiB (0%)
  126. Title                                    : SDH
  127. Language                                 : German
  128. Default                                  : No
  129. Forced                                   : No
  130.  
  131. Menu
  132. 00:00:00.000                             : en:Chapter 1
  133. 00:05:53.500                             : en:Chapter 2
  134. 00:08:26.250                             : en:Chapter 3
  135. 00:13:12.792                             : en:Chapter 4
  136. 00:17:53.083                             : en:Chapter 5
  137. 00:22:39.667                             : en:Chapter 6
  138. 00:28:51.042                             : en:Chapter 7
  139. 00:34:17.542                             : en:Chapter 8
  140. 00:39:38.042                             : en:Chapter 9
  141. 00:44:58.875                             : en:Chapter 10
  142. 00:50:53.083                             : en:Chapter 11
  143. 00:56:27.958                             : en:Chapter 12
  144. 01:00:25.708                             : en:Chapter 13
  145. 01:07:49.542                             : en:Chapter 14
  146. 01:16:18.792                             : en:Chapter 15
  147. 01:25:20.500                             : en:Chapter 16
RAW Paste Data