Guest User

Untitled

a guest
Jul 28th, 2021
143
Never
Not a member of Pastebin yet? Sign Up, it unlocks many cool features!
  1. General
  2. Unique ID : 44411907308699394811409053215834578733 (0x21696C166F22408D892CC043EF191F2D)
  3. Complete name : G:\Video\Bartkowiak.2021.NF.WEB-DL.1080p.seleZen.mkv
  4. Format : Matroska
  5. Format version : Version 4
  6. File size : 2.78 GiB
  7. Duration : 1 h 32 min
  8. Overall bit rate mode : Variable
  9. Overall bit rate : 4 318 kb/s
  10. Movie name : Bartkowiak 2021 from seleZen
  11. Encoded date : UTC 2021-07-28 09:27:59
  12. Writing application : mkvmerge v59.0.0 ('Shining Star') 64-bit
  13. Writing library : libebml v1.4.2 + libmatroska v1.6.4
  14.  
  15. Video
  16. ID : 1
  17. Format : AVC
  18. Format/Info : Advanced Video Codec
  19. Format profile : Main@L4
  20. Format settings : CABAC / 3 Ref Frames
  21. Format settings, CABAC : Yes
  22. Format settings, Reference : 3 frames
  23. Codec ID : V_MPEG4/ISO/AVC
  24. Duration : 1 h 32 min
  25. Bit rate mode : Variable
  26. Bit rate : 2 395 kb/s
  27. Nominal bit rate : 3 320 kb/s
  28. Maximum bit rate : 4 980 kb/s
  29. Width : 1 920 pixels
  30. Height : 1 080 pixels
  31. Display aspect ratio : 16:9
  32. Frame rate mode : Constant
  33. Frame rate : 25.000 FPS
  34. Color space : YUV
  35. Chroma subsampling : 4:2:0
  36. Bit depth : 8 bits
  37. Scan type : Progressive
  38. Bits/(Pixel*Frame) : 0.046
  39. Stream size : 1.54 GiB (55%)
  40. Writing library : x264 core 148 r2722 1b0121b
  41. Encoding settings : cabac=1 / ref=3 / deblock=1:0:0 / analyse=0x1:0x111 / me=umh / subme=10 / psy=1 / psy_rd=1.00:0.00 / mixed_ref=1 / me_range=24 / chroma_me=1 / trellis=2 / 8x8dct=0 / cqm=0 / deadzone=21,11 / fast_pskip=1 / chroma_qp_offset=-2 / threads=8 / lookahead_threads=1 / sliced_threads=0 / nr=0 / decimate=1 / interlaced=0 / bluray_compat=0 / stitchable=1 / constrained_intra=0 / bframes=2 / b_pyramid=0 / b_adapt=2 / b_bias=0 / direct=3 / weightb=1 / open_gop=0 / weightp=2 / keyint=250 / keyint_min=25 / scenecut=0 / intra_refresh=0 / rc_lookahead=50 / rc=2pass / mbtree=1 / bitrate=3320 / ratetol=1.0 / qcomp=0.50 / qpmin=6 / qpmax=51 / qpstep=4 / cplxblur=20.0 / qblur=0.5 / vbv_maxrate=4980 / vbv_bufsize=6640 / nal_hrd=vbr / filler=0 / ip_ratio=1.40 / aq=1:1.00
  42. Language : English
  43. Default : Yes
  44. Forced : No
  45.  
  46. Audio #1
  47. ID : 2
  48. Format : E-AC-3
  49. Format/Info : Enhanced AC-3
  50. Commercial name : Dolby Digital Plus
  51. Codec ID : A_EAC3
  52. Duration : 1 h 32 min
  53. Bit rate mode : Constant
  54. Bit rate : 640 kb/s
  55. Channel(s) : 6 channels
  56. Channel layout : L R C LFE Ls Rs
  57. Sampling rate : 48.0 kHz
  58. Frame rate : 31.250 FPS (1536 SPF)
  59. Compression mode : Lossy
  60. Stream size : 422 MiB (15%)
  61. Title : Netflix
  62. Language : Russian
  63. Service kind : Complete Main
  64. Default : Yes
  65. Forced : Yes
  66.  
  67. Audio #2
  68. ID : 3
  69. Format : AC-3
  70. Format/Info : Audio Coding 3
  71. Commercial name : Dolby Digital
  72. Codec ID : A_AC3
  73. Duration : 1 h 32 min
  74. Bit rate mode : Constant
  75. Bit rate : 640 kb/s
  76. Channel(s) : 6 channels
  77. Channel layout : L R C LFE Ls Rs
  78. Sampling rate : 48.0 kHz
  79. Frame rate : 31.250 FPS (1536 SPF)
  80. Compression mode : Lossy
  81. Stream size : 422 MiB (15%)
  82. Title : Netflix
  83. Language : Russian
  84. Service kind : Complete Main
  85. Default : No
  86. Forced : No
  87.  
  88. Audio #3
  89. ID : 4
  90. Format : E-AC-3
  91. Format/Info : Enhanced AC-3
  92. Commercial name : Dolby Digital Plus
  93. Codec ID : A_EAC3
  94. Duration : 1 h 32 min
  95. Bit rate mode : Constant
  96. Bit rate : 640 kb/s
  97. Channel(s) : 6 channels
  98. Channel layout : L R C LFE Ls Rs
  99. Sampling rate : 48.0 kHz
  100. Frame rate : 31.250 FPS (1536 SPF)
  101. Compression mode : Lossy
  102. Stream size : 422 MiB (15%)
  103. Title : English
  104. Language : English
  105. Service kind : Complete Main
  106. Default : No
  107. Forced : No
  108.  
  109. Text #1
  110. ID : 5
  111. Format : UTF-8
  112. Codec ID : S_TEXT/UTF8
  113. Codec ID/Info : UTF-8 Plain Text
  114. Duration : 1 h 30 min
  115. Bit rate : 1 b/s
  116. Count of elements : 29
  117. Stream size : 975 Bytes (0%)
  118. Title : Forced
  119. Language : Russian
  120. Default : Yes
  121. Forced : Yes
  122.  
  123. Text #2
  124. ID : 6
  125. Format : UTF-8
  126. Codec ID : S_TEXT/UTF8
  127. Codec ID/Info : UTF-8 Plain Text
  128. Duration : 1 h 30 min
  129. Bit rate : 50 b/s
  130. Count of elements : 773
  131. Stream size : 33.4 KiB (0%)
  132. Title : Full
  133. Language : Russian
  134. Default : No
  135. Forced : No
  136.  
  137. Text #3
  138. ID : 7
  139. Format : UTF-8
  140. Codec ID : S_TEXT/UTF8
  141. Codec ID/Info : UTF-8 Plain Text
  142. Duration : 1 h 25 min
  143. Bit rate : 2 b/s
  144. Count of elements : 47
  145. Stream size : 1.56 KiB (0%)
  146. Title : Forced
  147. Language : English
  148. Default : No
  149. Forced : No
  150.  
  151. Text #4
  152. ID : 8
  153. Format : UTF-8
  154. Codec ID : S_TEXT/UTF8
  155. Codec ID/Info : UTF-8 Plain Text
  156. Duration : 1 h 30 min
  157. Bit rate : 33 b/s
  158. Count of elements : 729
  159. Stream size : 22.1 KiB (0%)
  160. Title : Full
  161. Language : English
  162. Default : No
  163. Forced : No
  164.  
  165. Text #5
  166. ID : 9
  167. Format : UTF-8
  168. Codec ID : S_TEXT/UTF8
  169. Codec ID/Info : UTF-8 Plain Text
  170. Duration : 1 h 27 min
  171. Bit rate : 50 b/s
  172. Count of elements : 1093
  173. Stream size : 32.3 KiB (0%)
  174. Title : SDH
  175. Language : English
  176. Default : No
  177. Forced : No
  178.  
  179.  
RAW Paste Data