SHARE
TWEET

Untitled

a guest Jul 14th, 2018 118 Never
Not a member of Pastebin yet? Sign Up, it unlocks many cool features!
  1. TITLE "Tag des Wassers"
  2. PERFORMER "Goethes Erben"
  3. REM GENRE "Metal"
  4. REM DATE "2006"
  5. REM DISCNUMBER 1
  6. REM TOTALDISCS 1
  7. REM DISCID 3F089A05
  8. FILE "01-01 Goethes Erben - Tag des Wassers.wav" WAVE
  9.   TRACK 01 AUDIO
  10.     TITLE "Tag des Wassers"
  11.     INDEX 01 00:00:00
  12.   TRACK 02 AUDIO
  13.     TITLE "ouvertüre (zum Musiktheaterstück "Schattendenken")"
  14.     INDEX 00 03:25:53
  15. FILE "01-02 Goethes Erben - ouvertüre (zum Musiktheaterstück "Schattendenken").wav" WAVE
  16.     INDEX 01 00:00:00
  17.   TRACK 03 AUDIO
  18.     TITLE "Kopfstimme (FIL-Mix)"
  19.     INDEX 00 04:56:72
  20. FILE "01-03 Goethes Erben - Kopfstimme (FIL-Mix).wav" WAVE
  21.     INDEX 01 00:00:00
  22.   TRACK 04 AUDIO
  23.     TITLE "Müde"
  24.     INDEX 00 05:53:72
  25. FILE "01-04 Goethes Erben - Müde.wav" WAVE
  26.     INDEX 01 00:00:00
RAW Paste Data
We use cookies for various purposes including analytics. By continuing to use Pastebin, you agree to our use of cookies as described in the Cookies Policy. OK, I Understand
 
Top