GrabHD

Untitled

Feb 24th, 2020
84
Never
Not a member of Pastebin yet? Sign Up, it unlocks many cool features!
  1. Complete name: Starik.s.pistoletom.2018.1080p.BluRay.ELEKTRI4KA.UNIONGANG.mkv
  2. Format: Matroska
  3. Format version: Version 4 / Version 2
  4. File size: 10.3 GiB
  5. Duration: 1 h 33 min
  6. Overall bit rate mode: Variable
  7. Overall bit rate: 15.9 Mb/s
  8. Movie name: ELEKTRI4KA.UNIONGANG
  9. Encoded date: UTC 2020-02-24 14:35:55
  10. Writing application: mkvmerge v8.3.0 ('Over the Horizon') 64bit
  11. Writing library: libebml v1.3.1 + libmatroska v1.4.2
  12.  
  13. Video
  14. ID: 1
  15. Format: AVC
  16. Format/Info: Advanced Video Codec
  17. Format profile: High@L4.1
  18. Format settings, CABAC: Yes
  19. Format settings, Reference frames: 4 frames
  20. Codec ID: V_MPEG4/ISO/AVC
  21. Duration: 1 h 33 min
  22. Bit rate mode: Variable
  23. Bit rate: 14.0 Mb/s
  24. Maximum bit rate: 50.0 Mb/s
  25. Width: 1 920 pixels
  26. Height: 804 pixels
  27. Display aspect ratio: 2.40:1
  28. Frame rate mode: Constant
  29. Frame rate: 23.976 (24000/1001) FPS
  30. Color space: YUV
  31. Chroma subsampling: 4:2:0
  32. Bit depth: 8 bits
  33. Scan type: Progressive
  34. Bits/(Pixel*Frame): 0.378
  35. Stream size: 9.08 GiB (88%)
  36. Writing library: x264 core 142 r2431+42 c69a006 tMod [8-bit@all X86_64]
  37. Encoding settings: cabac=1 / ref=5 / deblock=1:-3:-3 / analyse=0x3:0x133 / me=umh / subme=11 / psy=1 / fade_compensate=0.00 / psy_rd=1.04:1.05 / mixed_ref=1 / me_range=48 / chroma_me=1 / trellis=2 / 8x8dct=1 / cqm=0 / deadzone=21,11 / fast_pskip=0 / chroma_qp_offset=-4 / threads=16 / lookahead_threads=2 / sliced_threads=0 / nr=0 / decimate=0 / interlaced=0 / bluray_compat=0 / constrained_intra=0 / fgo=0 / bframes=8 / b_pyramid=1 / b_adapt=2 / b_bias=0 / direct=3 / weightb=1 / open_gop=0 / weightp=2 / keyint=240 / keyint_min=23 / scenecut=40 / intra_refresh=0 / rc_lookahead=150 / rc=2pass / mbtree=0 / bitrate=14000 / ratetol=1.0 / qcomp=0.70 / qpmin=0:0:0 / qpmax=69:69:69 / qpstep=4 / cplxblur=20.0 / qblur=0.5 / vbv_maxrate=50000 / vbv_bufsize=62500 / nal_hrd=vbr / filler=0 / ip_ratio=1.30 / pb_ratio=1.20 / aq=2:0.80 / aq-sensitivity=10.00 / aq-factor=1.00:1.00:1.00 / aq2=0 / aq3=0
  38. Default: Yes
  39. Forced: No
  40. Color range: Limited
  41. Color primaries: BT.709
  42. Transfer characteristics: BT.709
  43. Matrix coefficients: BT.709
  44.  
  45. Audio #1
  46. ID: 2
  47. Format: AC-3
  48. Format/Info: Audio Coding 3
  49. Mode extension: CM (complete main)
  50. Format settings, Endianness: Big
  51. Codec ID: A_AC3
  52. Duration: 1 h 33 min
  53. Bit rate mode: Constant
  54. Bit rate: 384 kb/s
  55. Channel(s): 6 channels
  56. Channel positions: Front: L C R, Side: L R, LFE
  57. Sampling rate: 48.0 kHz
  58. Frame rate: 31.250 FPS (1536 spf)
  59. Bit depth: 16 bits
  60. Compression mode: Lossy
  61. Stream size: 256 MiB (2%)
  62. Title: iTunes
  63. Language: Russian
  64. Default: Yes
  65. Forced: No
  66.  
  67. Audio #2
  68. ID: 3
  69. Format: DTS
  70. Format/Info: Digital Theater Systems
  71. Mode: 16
  72. Format settings, Endianness: Big
  73. Codec ID: A_DTS
  74. Duration: 1 h 33 min
  75. Bit rate mode: Constant
  76. Bit rate: 1 509 kb/s
  77. Channel(s): 6 channels
  78. Channel positions: Front: L C R, Side: L R, LFE
  79. Sampling rate: 48.0 kHz
  80. Frame rate: 93.750 FPS (512 spf)
  81. Bit depth: 24 bits
  82. Compression mode: Lossy
  83. Stream size: 1 004 MiB (9%)
  84. Language: English
  85. Default: No
  86. Forced: No
  87.  
  88. Text #1
  89. ID: 4
  90. Format: UTF-8
  91. Codec ID: S_TEXT/UTF8
  92. Codec ID/Info: UTF-8 Plain Text
  93. Duration: 1 h 19 min
  94. Bit rate: 4 b/s
  95. Count of elements: 43
  96. Stream size: 2.75 KiB (0%)
  97. Title: Forced
  98. Language: Russian
  99. Default: No
  100. Forced: No
  101.  
  102. Text #2
  103. ID: 5
  104. Format: PGS
  105. Muxing mode: zlib
  106. Codec ID: S_HDMV/PGS
  107. Codec ID/Info: Picture based subtitle format used on BDs/HD-DVDs
  108. Duration: 1 h 30 min
  109. Bit rate: 20.3 kb/s
  110. Count of elements: 2818
  111. Stream size: 13.1 MiB (0%)
  112. Title: SDH
  113. Language: English
  114. Default: Yes
  115. Forced: No
  116.  
  117. Menu
  118. 00:00:00.000: en:Chapter 1
  119. 00:03:21.618: en:Chapter 2
  120. 00:08:18.498: en:Chapter 3
  121. 00:13:35.940: en:Chapter 4
  122. 00:19:34.507: en:Chapter 5
  123. 00:23:02.214: en:Chapter 6
  124. 00:26:35.761: en:Chapter 7
  125. 00:30:38.962: en:Chapter 8
  126. 00:34:17.472: en:Chapter 9
  127. 00:38:02.155: en:Chapter 10
  128. 00:41:30.697: en:Chapter 11
  129. 00:44:40.887: en:Chapter 12
  130. 00:48:19.230: en:Chapter 13
  131. 00:50:06.003: en:Chapter 14
  132. 00:53:44.304: en:Chapter 15
  133. 00:56:18.875: en:Chapter 16
  134. 01:00:09.981: en:Chapter 17
  135. 01:04:19.022: en:Chapter 18
  136. 01:09:40.968: en:Chapter 19
  137. 01:14:20.790: en:Chapter 20
  138. 01:18:02.595: en:Chapter 21
  139. 01:21:18.248: en:Chapter 22
  140. 01:24:33.944: en:Chapter 23
  141. 01:26:49.996: en:Chapter 24
RAW Paste Data