SHARE
TWEET

Untitled

a guest Jun 29th, 2017 61 Never
Not a member of Pastebin yet? Sign Up, it unlocks many cool features!
  1. ************************************************************************************
  2. ***** Task 1 of 1
  3. ***** Command reads:
  4. ***** c:\ffmpeg -probesize 5000000 -i "D:\Photography\demo_out.avi" -c:v prores_ks -profile:v 4 -qsc
  5. ale:v 9 -vendor ap10 -s 1920x1080 -pix_fmt yuv444p10 -chunk_duration 500000 -c:a pcm_s16le "D:\Photo
  6. graphy\demo_out_prores4444.mov"
  7. ***** Command's output follows:
  8. ffmpeg version N-85469-gf1d80bc Copyright (c) 2000-2017 the FFmpeg developers
  9.   built with gcc 6.3.0 (GCC)
  10.   configuration: --enable-gpl --enable-version3 --enable-cuda --enable-cuvid --enable-d3d11va --enab
  11. le-dxva2 --enable-libmfx --enable-nvenc --enable-avisynth --enable-bzlib --enable-fontconfig --enabl
  12. e-frei0r --enable-gnutls --enable-iconv --enable-libass --enable-libbluray --enable-libbs2b --enable
  13. -libcaca --enable-libfreetype --enable-libgme --enable-libgsm --enable-libilbc --enable-libmodplug -
  14. -enable-libmp3lame --enable-libopencore-amrnb --enable-libopencore-amrwb --enable-libopenh264 --enab
  15. le-libopenjpeg --enable-libopus --enable-librtmp --enable-libsnappy --enable-libsoxr --enable-libspe
  16. ex --enable-libtheora --enable-libtwolame --enable-libvidstab --enable-libvo-amrwbenc --enable-libvo
  17. rbis --enable-libvpx --enable-libwavpack --enable-libwebp --enable-libx264 --enable-libx265 --enable
  18. -libxavs --enable-libxvid --enable-libzimg --enable-lzma --enable-zlib
  19.   libavutil      55. 61.100 / 55. 61.100
  20.   libavcodec     57. 92.100 / 57. 92.100
  21.   libavformat    57. 72.100 / 57. 72.100
  22.   libavdevice    57.  7.100 / 57.  7.100
  23.   libavfilter     6. 84.101 /  6. 84.101
  24.   libswscale      4.  7.100 /  4.  7.100
  25.   libswresample   2.  8.100 /  2.  8.100
  26.   libpostproc    54.  6.100 / 54.  6.100
  27. [avi @ 000000000047a800] non-interleaved AVI
  28. [avi @ 000000000047a800] Stream #0: not enough frames to estimate rate; consider increasing probesiz
  29. e
  30. Guessed Channel Layout for Input Stream #0.1 : stereo
  31. Input #0, avi, from 'D:\Photography\demo_out.avi':
  32.   Metadata:
  33.     date            : 2017-06-29T18:49:24.00619+01:00
  34.     encoder         : Adobe Premiere Pro 5.0
  35.   Duration: 00:01:01.48, start: 0.000000, bitrate: 1109457 kb/s
  36.     Stream #0:0: Video: v210 (v210 / 0x30313276), yuv422p10le, 1920x1080, 1106640 kb/s, 25 fps, 25 t
  37. br, 25 tbn, 25 tbc
  38.     Stream #0:1: Audio: pcm_s16le ([1][0][0][0] / 0x0001), 96000 Hz, stereo, s16, 3072 kb/s
  39. Stream mapping:
  40.   Stream #0:0 -> #0:0 (v210 (native) -> prores (prores_ks))
  41.   Stream #0:1 -> #0:1 (pcm_s16le (native) -> pcm_s16le (native))
  42. Press [q] to stop, [?] for help
  43. Output #0, mov, to 'D:\Photography\demo_out_prores4444.mov':
  44.   Metadata:
  45.     date            : 2017-06-29T18:49:24.00619+01:00
  46.     encoder         : Lavf57.72.100
  47.     Stream #0:0: Video: prores (prores_ks) (ap4h / 0x68347061), yuv444p10le(progressive), 1920x1080,
  48.  q=2-31, 200 kb/s, 25 fps, 12800 tbn, 25 tbc
  49.     Metadata:
  50.       encoder         : Lavc57.92.100 prores_ks
  51.     Stream #0:1: Audio: pcm_s16le (sowt / 0x74776F73), 96000 Hz, stereo, s16, 3072 kb/s
  52.     Metadata:
  53.       encoder         : Lavc57.92.100 pcm_s16le
  54. frame= 1537 fps=8.9 q=-0.0 Lsize=  374576kB time=00:01:01.48 bitrate=49910.9kbits/s speed=0.355x
  55.  
  56. video:351509kB audio:23055kB subtitle:0kB other streams:0kB global headers:0kB muxing overhead: 0.00
  57. 3175%
  58.  
  59. D:\Photography>
RAW Paste Data
We use cookies for various purposes including analytics. By continuing to use Pastebin, you agree to our use of cookies as described in the Cookies Policy. OK, I Understand
 
Top