yuuta_dono

CCMovieB5.MediaInfo

Dec 6th, 2019
362
Never
Not a member of Pastebin yet? Sign Up, it unlocks many cool features!
  1. General
  2. Complete name : [Mabors-Sub][Code Geass Fukkatsu no Lelouch][Movie][1080P][V2][BIG5][BDrip][AVC AAC YUV420P8].mp4
  3. Format : MPEG-4
  4. Format profile : Base Media
  5. Codec ID : isom (isom/iso2/avc1/mp41)
  6. File size : 3.14 GiB
  7. Duration : 1 h 52 min
  8. Overall bit rate : 3 980 kb/s
  9. Writing application : Lavf58.28.101
  10.  
  11. Video
  12. ID : 1
  13. Format : AVC
  14. Format/Info : Advanced Video Codec
  15. Format profile : High@L5.1
  16. Format settings : CABAC / 9 Ref Frames
  17. Format settings, CABAC : Yes
  18. Format settings, Reference frames : 9 frames
  19. Codec ID : avc1
  20. Codec ID/Info : Advanced Video Coding
  21. Duration : 1 h 52 min
  22. Bit rate : 3 620 kb/s
  23. Width : 1 920 pixels
  24. Height : 1 080 pixels
  25. Display aspect ratio : 16:9
  26. Frame rate mode : Variable
  27. Frame rate : 23.976 (24000/1001) FPS
  28. Minimum frame rate : 23.256 FPS
  29. Maximum frame rate : 24.390 FPS
  30. Color space : YUV
  31. Chroma subsampling : 4:2:0
  32. Bit depth : 8 bits
  33. Scan type : Progressive
  34. Bits/(Pixel*Frame) : 0.073
  35. Stream size : 2.86 GiB (91%)
  36. Language : Chinese
  37. Codec configuration box : avcC
  38.  
  39. Audio
  40. ID : 2
  41. Format : AAC LC
  42. Format/Info : Advanced Audio Codec Low Complexity
  43. Codec ID : mp4a-40-2
  44. Duration : 1 h 52 min
  45. Bit rate mode : Constant
  46. Bit rate : 353 kb/s
  47. Channel(s) : 2 channels
  48. Channel layout : L R
  49. Sampling rate : 48.0 kHz
  50. Frame rate : 46.875 FPS (1024 SPF)
  51. Compression mode : Lossy
  52. Stream size : 285 MiB (9%)
  53. Language : Japanese
  54. Default : Yes
  55. Alternate group : 1
RAW Paste Data