trds

Untitled

Oct 14th, 2021
64
Never
Not a member of Pastebin yet? Sign Up, it unlocks many cool features!
  1. General
  2. Unique ID                                : 158208082192742296248808382699232929563 (0x7705C4AEE8D852897B1A5E12E639A71B)
  3. Complete name                            : D:\Encodes\Snake.Eyes.G.I.Joe.Origins.2021.720p.BluRay.DD-EX.5.1.x264-playHD\Snake.Eyes.G.I.Joe.Origins.2021.720p.BluRay.DD-EX.5.1.x264-playHD.mkv
  4. Format                                   : Matroska
  5. Format version                           : Version 4
  6. File size                                : 6.06 GiB
  7. Duration                                 : 2 h 1 min
  8. Overall bit rate                         : 7 148 kb/s
  9. Encoded date                             : UTC 2021-10-14 09:52:56
  10. Writing application                      : mkvmerge v56.1.0 ('My Friend') 64-bit
  11. Writing library                          : libebml v1.4.2 + libmatroska v1.6.4
  12.  
  13. Video
  14. ID                                       : 1
  15. Format                                   : AVC
  16. Format/Info                              : Advanced Video Codec
  17. Format profile                           : High@L4.1
  18. Format settings                          : CABAC / 12 Ref Frames
  19. Format settings, CABAC                   : Yes
  20. Format settings, Reference frames        : 12 frames
  21. Codec ID                                 : V_MPEG4/ISO/AVC
  22. Duration                                 : 2 h 1 min
  23. Bit rate                                 : 6 506 kb/s
  24. Width                                    : 1 280 pixels
  25. Height                                   : 536 pixels
  26. Display aspect ratio                     : 2.40:1
  27. Frame rate mode                          : Constant
  28. Frame rate                               : 23.976 (24000/1001) FPS
  29. Color space                              : YUV
  30. Chroma subsampling                       : 4:2:0
  31. Bit depth                                : 8 bits
  32. Scan type                                : Progressive
  33. Bits/(Pixel*Frame)                       : 0.395
  34. Stream size                              : 5.52 GiB (91%)
  35. Writing library                          : x264 core 161 r3048+53M t_mod ~~~~~~~ Just us ~ JigSaw & droops16 ~
  36. Encoding settings                        : cabac=1 / ref=12 / deblock=1:-3:-3 / analyse=0x3:0x133 / me=umh / subme=10 / psy=1 / fade_compensate=0.00 / psy_rd=1.00:0.00 / mixed_ref=1 / me_range=32 / chroma_me=1 / trellis=2 / 8x8dct=1 / cqm=0 / deadzone=21,11 / fast_pskip=0 / chroma_qp_offset=-2 / threads=12 / lookahead_threads=2 / sliced_threads=0 / nr=0 / decimate=0 / interlaced=0 / bluray_compat=0 / constrained_intra=0 / fgo=0 / bframes=9 / b_pyramid=2 / b_adapt=2 / b_bias=0 / direct=3 / weightb=1 / open_gop=0 / weightp=2 / keyint=250 / keyint_min=23 / scenecut=40 / intra_refresh=0 / rc=crf / mbtree=0 / crf=14.7000 / qcomp=0.60 / qpmin=0:0:0 / qpmax=69:69:69 / qpstep=4 / ip_ratio=1.30 / pb_ratio=1.20 / aq=3:0.85 / aq-sensitivity=10.00 / aq-factor=1.00:1.00:1.00 / aq2=0 / aq3=0
  37. Language                                 : English
  38. Default                                  : Yes
  39. Forced                                   : No
  40.  
  41. Audio
  42. ID                                       : 2
  43. Format                                   : AC-3
  44. Format/Info                              : Audio Coding 3
  45. Commercial name                          : Dolby Digital
  46. Format settings                          : Dolby Surround EX
  47. Codec ID                                 : A_AC3
  48. Duration                                 : 2 h 1 min
  49. Bit rate mode                            : Constant
  50. Bit rate                                 : 640 kb/s
  51. Channel(s)                               : 6 channels
  52. Channel layout                           : L R C LFE Ls Rs
  53. Sampling rate                            : 48.0 kHz
  54. Frame rate                               : 31.250 FPS (1536 SPF)
  55. Compression mode                         : Lossy
  56. Stream size                              : 556 MiB (9%)
  57. Language                                 : English
  58. Service kind                             : Complete Main
  59. Default                                  : Yes
  60. Forced                                   : No
  61.  
  62. Text #1
  63. ID                                       : 3
  64. Format                                   : UTF-8
  65. Codec ID                                 : S_TEXT/UTF8
  66. Codec ID/Info                            : UTF-8 Plain Text
  67. Duration                                 : 1 h 52 min
  68. Bit rate                                 : 27 b/s
  69. Count of elements                        : 790
  70. Stream size                              : 22.9 KiB (0%)
  71. Language                                 : English
  72. Default                                  : No
  73. Forced                                   : No
  74.  
  75. Text #2
  76. ID                                       : 4
  77. Format                                   : UTF-8
  78. Codec ID                                 : S_TEXT/UTF8
  79. Codec ID/Info                            : UTF-8 Plain Text
  80. Duration                                 : 1 h 52 min
  81. Bit rate                                 : 31 b/s
  82. Count of elements                        : 978
  83. Stream size                              : 25.7 KiB (0%)
  84. Title                                    : SDH
  85. Language                                 : English
  86. Default                                  : No
  87. Forced                                   : No
  88.  
  89. Text #3
  90. ID                                       : 5
  91. Format                                   : UTF-8
  92. Codec ID                                 : S_TEXT/UTF8
  93. Codec ID/Info                            : UTF-8 Plain Text
  94. Duration                                 : 1 h 59 min
  95. Bit rate                                 : 25 b/s
  96. Count of elements                        : 763
  97. Stream size                              : 22.5 KiB (0%)
  98. Language                                 : Romanian
  99. Default                                  : No
  100. Forced                                   : No
  101.  
  102. Menu
  103. 00:00:00.000                             : :Chapter 01
  104. 00:10:17.367                             : :Chapter 02
  105. 00:19:39.887                             : :Chapter 03
  106. 00:28:50.062                             : :Chapter 04
  107. 00:37:50.977                             : :Chapter 05
  108. 00:43:39.867                             : :Chapter 06
  109. 00:54:53.790                             : :Chapter 07
  110. 01:03:18.920                             : :Chapter 08
  111. 01:14:04.440                             : :Chapter 09
  112. 01:23:59.117                             : :Chapter 10
  113. 01:29:09.219                             : :Chapter 11
  114. 01:36:39.293                             : :Chapter 12
  115. 01:46:26.922                             : :Chapter 13
  116. 01:53:51.533                             : :Chapter 14
  117. 02:01:24.694                             : :Chapter 15
  118.  
  119. //
  120.  
  121. x264 [info]: frame I:1388  Avg QP:11.20  size:138489
  122. x264 [info]: frame P:41279 Avg QP:12.92  size: 60003
  123. x264 [info]: frame B:131997 Avg QP:13.93  size: 24660
  124. x264 [info]: consecutive B-frames:  3.4%  4.0% 12.6% 18.0% 17.3% 29.0%  7.2%  3.5%  2.6%  2.2%
RAW Paste Data