Guest User

MP4 to Repair

a guest
Jun 11th, 2016
130
Never
Not a member of Pastebin yet? Sign Up, it unlocks many cool features!
  1. Winx Output after failed conversion
  2.  
  3. WinX HD Video Converter Deluxe 5.9.4
  4. ID=018000001
  5. AudioChannel=2
  6. AudioCodec=aac
  7. AudioQuality=128
  8. AudioSampleRate=44100
  9. VideoAspect=keep origin
  10. VideoCodec=h264
  11. VideoFrameRate=keep origin
  12. VideoResolution=keep origin
  13. VideoQuality=800
  14. TwoPassEncode=0
  15. ====================================
  16. 00 -> -d'
  17. 01 -> -hide_banner'
  18. 02 -> -y'
  19. 03 -> -i'
  20. 04 -> D:\Pictures\Videos\myvideo.mp4'
  21. 05 -> -c:v'
  22. 06 -> libx264'
  23. 07 -> -flags'
  24. 08 -> +loop'
  25. 09 -> -cmp'
  26. 10 -> chroma'
  27. 11 -> -deblock'
  28. 12 -> 0:0'
  29. 13 -> -bt'
  30. 14 -> 256k'
  31. 15 -> -coder'
  32. 16 -> 0'
  33. 17 -> -me_method'
  34. 18 -> epzs'
  35. 19 -> -me_range'
  36. 20 -> 16'
  37. 21 -> -subq'
  38. 22 -> 5'
  39. 23 -> -partitions'
  40. 24 -> +parti4x4+parti8x8+partp8x8'
  41. 25 -> -g'
  42. 26 -> 200'
  43. 27 -> -keyint_min'
  44. 28 -> 25'
  45. 29 -> -trellis'
  46. 30 -> 0'
  47. 31 -> -sc_threshold'
  48. 32 -> 40'
  49. 33 -> -i_qfactor'
  50. 34 -> 0.71'
  51. 35 -> -b_strategy'
  52. 36 -> 1'
  53. 37 -> -qcomp'
  54. 38 -> 0.6'
  55. 39 -> -qdiff'
  56. 40 -> 4'
  57. 41 -> -refs'
  58. 42 -> 2'
  59. 43 -> -direct-pred'
  60. 44 -> 1'
  61. 45 -> -wpredp'
  62. 46 -> 2'
  63. 47 -> -profile:v'
  64. 48 -> baseline'
  65. 49 -> -level'
  66. 50 -> 30'
  67. 51 -> -bf'
  68. 52 -> 0'
  69. 53 -> -coder'
  70. 54 -> 0'
  71. 55 -> -crf'
  72. 56 -> 28'
  73. 57 -> -qmin'
  74. 58 -> 10'
  75. 59 -> -qmax'
  76. 60 -> 41'
  77. 61 -> -maxrate'
  78. 62 -> 8000k'
  79. 63 -> -bufsize'
  80. 64 -> 18350k'
  81. 65 -> -pix_fmt'
  82. 66 -> yuv420p'
  83. 67 -> -c:a'
  84. 68 -> libfdk_aac'
  85. 69 -> -ar'
  86. 70 -> 44100'
  87. 71 -> -ac'
  88. 72 -> 2'
  89. 73 -> -b:a'
  90. 74 -> 128K'
  91. 75 -> -metadata'
  92. 76 -> title=myvideo_MOV_0006'
  93. 77 -> -metadata'
  94. 78 -> artist=WinX HD Video Converter Deluxe'
  95. 79 -> -map'
  96. 80 -> 0:0'
  97. 81 -> -map'
  98. 82 -> 0:a:0'
  99. 83 -> -sn'
  100. 84 -> -f'
  101. 85 -> mp4'
  102. 86 -> -threads'
  103. 87 -> 2'
  104. 88 -> C:\Users\Anon\Videos\WinXVideos\myvideo_MOV_0006.mp4'
  105. channel element 0.0 is not allocated
  106. AVC: nal size 841345618
  107. no frame!
  108. AVC: nal size 1935753275
  109. no frame!
  110. AVC: nal size 2041588847
  111. no frame!
  112. AVC: nal size -1119995215
  113. no frame!
  114. AVC: nal size 2097692341
  115. no frame!
  116. AVC: nal size 1113744566
  117. no frame!
  118. AVC: nal size 97118723
  119. no frame!
  120. AVC: nal size -281657264
  121. no frame!
  122. AVC: nal size -1262430015
  123. no frame!
  124. AVC: nal size 351937135
  125. no frame!
  126. AVC: nal size 1808732261
  127. no frame!
  128. AVC: nal size 1019769020
  129. no frame!
  130. AVC: nal size 197599813
  131. no frame!
  132. AVC: nal size -209038768
  133. no frame!
  134. AVC: nal size 1936189148
  135. no frame!
  136. AVC: nal size -1370552613
  137. no frame!
  138. AVC: nal size 1523250503
  139. no frame!
  140. AVC: nal size 215510559
  141. no frame!
  142. AVC: nal size 808801979
  143. no frame!
  144. AVC: nal size -2014786375
  145. no frame!
  146. AVC: nal size 716785457
  147. no frame!
  148. AVC: nal size 946241285
  149. no frame!
  150. AVC: nal size 2110484507
  151. no frame!
  152. AVC: nal size -1622506656
  153. no frame!
  154. AVC: nal size 1043959625
  155. no frame!
  156. AVC: nal size -1423943760
  157. no frame!
  158. AVC: nal size 1320972347
  159. no frame!
  160. AVC: nal size 1453573053
  161. no frame!
  162. AVC: nal size 2138181448
  163. no frame!
  164. AVC: nal size -696293110
  165. no frame!
  166. AVC: nal size 1187772415
  167. no frame!
  168. AVC: nal size 439881134
  169. no frame!
  170. AVC: nal size 742526175
  171. no frame!
  172. AVC: nal size 175574295
  173. no frame!
  174. AVC: nal size 1238381582
  175. no frame!
  176. AVC: nal size -1108703452
  177. no frame!
  178. AVC: nal size 1849316721
  179. no frame!
  180. AVC: nal size -244082782
  181. no frame!
  182. AVC: nal size -433374191
  183. no frame!
  184. AVC: nal size 76780451
  185. no frame!
  186. AVC: nal size 1117393438
  187. no frame!
  188. AVC: nal size -1506776095
  189. no frame!
  190. AVC: nal size -283476991
  191. no frame!
  192. AVC: nal size 1538442385
  193. no frame!
  194. AVC: nal size 1094559049
  195. no frame!
  196. AVC: nal size 2112516841
  197. no frame!
  198. AVC: nal size 1293984951
  199. no frame!
  200. AVC: nal size -1748046938
  201. no frame!
  202. AVC: nal size -842056745
  203. no frame!
  204. AVC: nal size 474717967
  205. no frame!
  206. AVC: nal size 1121413605
  207. no frame!
  208. AVC: nal size -2017940584
  209. no frame!
  210. AVC: nal size 1562213698
  211. no frame!
  212. AVC: nal size 397478988
  213. no frame!
  214. AVC: nal size -1237804291
  215. no frame!
  216. AVC: nal size -1574578988
  217. no frame!
  218. AVC: nal size 254126261
  219. no frame!
  220. AVC: nal size -1152759476
  221. no frame!
  222. AVC: nal size -1405380404
  223. no frame!
  224. AVC: nal size -289875253
  225. no frame!
  226. AVC: nal size -156861432
  227. no frame!
  228. AVC: nal size 2131527102
  229. no frame!
  230. AVC: nal size -1562148640
  231. no frame!
  232. AVC: nal size -2075262581
  233. no frame!
  234. AVC: nal size -765071581
  235. no frame!
  236. AVC: nal size -278841313
  237. no frame!
  238. AVC: nal size -869933750
  239. no frame!
  240. AVC: nal size -1145489508
  241. no frame!
  242. AVC: nal size -82018227
  243. no frame!
  244. decoding for stream 0 failed
  245. Could not find codec parameters for stream 0 (Video: h264 (avc1 / 0x31637661), none, 1920x1080, 17408 kb/s): unspecified pixel format
  246. Consider increasing the value for the 'analyzeduration' and 'probesize' options
  247. Input #0, mov,mp4,m4a,3gp,3g2,mj2, from 'D:\Pictures\Videos\myvideo_MOV_0006.mp4':
  248. Metadata:
  249. major_brand : isom
  250. minor_version : 0
  251. compatible_brands: isom3gp4
  252. creation_time : 2014-02-22 17:05:28
  253. Duration: 00:10:25.28, start: 0.000000, bitrate: 17536 kb/s
  254. Stream #0:0(eng): Video: h264 (avc1 / 0x31637661), none, 1920x1080, 17408 kb/s, SAR 1:1 DAR 16:9, 29.70 fps, 29.67 tbr, 90k tbn,
  255. 180k tbc (default)
  256. Metadata:
  257. rotate : 90
  258. creation_time : 2014-02-22 17:05:28
  259. handler_name : VideoHandle
  260. encoder :
  261. Side data:
  262. displaymatrix: rotation of -90.00 degrees
  263. Stream #0:1(eng): Audio: aac (LC) (mp4a / 0x6134706D), 48000 Hz, stereo, fltp, 128 kb/s (default)
  264. Metadata:
  265. creation_time : 2014-02-22 17:05:28
  266. handler_name : SoundHandle
  267. Unable to parse option value "-1" as pixel format
  268. Unable to parse option value "-1" as pixel format
  269. Error setting option pix_fmt to value -1.
  270. Error applying options to the filter.
  271. Error opening filters!
  272. Error Code 1
  273. ====================================
  274.  
  275.  
  276.  
  277.  
  278.  
  279.  
  280.  
  281.  
  282.  
  283. Other Software
  284. -------------------------------------------------------
  285.  
  286. General
  287. Complete name : D:\Pictures\Videos\myvideo_MOV_0006.mp4
  288. Format : MPEG-4
  289. Format profile : Base Media
  290. Codec ID : isom
  291. File size : 1.28 GiB
  292. Duration : 10mn 25s
  293. Overall bit rate : 17.5 Mbps
  294. Encoded date : UTC 2014-02-22 17:05:28
  295. Tagged date : UTC 2014-02-22 17:05:28
  296. Xtra : WM/MediaClassPrimaryID
  297.  
  298. Video
  299. ID : 1
  300. Format : AVC
  301. Format/Info : Advanced Video Codec
  302. Format profile : High@L4.0
  303. Format settings, CABAC : Yes
  304. Format settings, ReFrames : 1 frame
  305. Codec ID : avc1
  306. Codec ID/Info : Advanced Video Coding
  307. Duration : 10mn 24s
  308. Bit rate mode : Variable
  309. Bit rate : 17.4 Mbps
  310. Width : 1 920 pixels
  311. Height : 1 080 pixels
  312. Display aspect ratio : 16:9
  313. Rotation : 90°
  314. Frame rate mode : Variable
  315. Frame rate : 29.696 fps
  316. Minimum frame rate : 25.417 fps
  317. Maximum frame rate : 31.813 fps
  318. Color space : YUV
  319. Chroma subsampling : 4:2:0
  320. Bit depth : 8 bits
  321. Scan type : Progressive
  322. Bits/(Pixel*Frame) : 0.283
  323. Stream size : 1.27 GiB (99%)
  324. Title : VideoHandle
  325. Language : English
  326. Encoded date : UTC 2014-02-22 17:05:28
  327. Tagged date : UTC 2014-02-22 17:05:28
  328.  
  329. Audio
  330. ID : 2
  331. Format : AAC
  332. Format/Info : Advanced Audio Codec
  333. Format profile : HE-AAC / LC
  334. Codec ID : 40
  335. Duration : 10mn 25s
  336. Bit rate mode : Constant
  337. Bit rate : 128 Kbps
  338. Nominal bit rate : 96.0 Kbps
  339. Channel(s) : 2 channels
  340. Channel positions : Front: L R
  341. Sampling rate : 96.0 KHz / 48.0 KHz
  342. Compression mode : Lossy
  343. Stream size : 9.54 MiB (1%)
  344. Title : SoundHandle
  345. Language : English
  346. Encoded date : UTC 2014-02-22 17:05:28
  347. Tagged date : UTC 2014-02-22 17:05:28
RAW Paste Data

Adblocker detected! Please consider disabling it...

We've detected AdBlock Plus or some other adblocking software preventing Pastebin.com from fully loading.

We don't have any obnoxious sound, or popup ads, we actively block these annoying types of ads!

Please add Pastebin.com to your ad blocker whitelist or disable your adblocking software.

×