Guest User

Untitled

a guest
Nov 17th, 2019
430
Never
Not a member of Pastebin yet? Sign Up, it unlocks many cool features!
  1. General
  2. Unique ID : 254139478010699477074003196696139446301 (0xBF317BAAD08D19C1ABEFFFE82FE0B81D)
  3. Complete name : D:\Dragon Ball Z\[WinxBloom1980] Dragon Ball Z 001-291 + Specials 1-2 [COMPLETE][BROADCAST AUDIO][JA-EN]\Edited Episodes\Dragon Ball Z - 001.mkv
  4. Format : Matroska
  5. Format version : Version 1
  6. File size : 470 MiB
  7. Duration : 10 min 18 s
  8. Overall bit rate : 6 365 kb/s
  9. Encoded date : UTC 2018-02-18 12:52:07
  10. Writing application : mkvmerge v12.0.0 ('Trust / Lust') 32bit
  11. Writing library : libebml v1.3.4 + libmatroska v1.4.5
  12. Attachments : Funimitation.ttf / FunimitationBoldItalic.ttf / PutoInsanity.ttf / PutoInsanityBoldItalic.ttf
  13.  
  14. Video
  15. ID : 1
  16. Format : AVC
  17. Format/Info : Advanced Video Codec
  18. Format profile : High@L5
  19. Format settings : CABAC / 16 Ref Frames
  20. Format settings, CABAC : Yes
  21. Format settings, Reference frames : 16 frames
  22. Codec ID : V_MPEG4/ISO/AVC
  23. Duration : 10 min 18 s
  24. Bit rate : 6 133 kb/s
  25. Width : 960 pixels
  26. Height : 720 pixels
  27. Display aspect ratio : 4:3
  28. Frame rate mode : Variable
  29. Frame rate : 23.976 (23976/1000) FPS
  30. Original frame rate : 11.905 FPS
  31. Color space : YUV
  32. Chroma subsampling : 4:2:0
  33. Bit depth : 8 bits
  34. Scan type : Progressive
  35. Bits/(Pixel*Frame) : 0.370
  36. Stream size : 452 MiB (96%)
  37. Writing library : x264 core 140 r2377 1ca7bb9
  38. Encoding settings : cabac=1 / ref=16 / deblock=1:0:0 / analyse=0x3:0x133 / me=umh / subme=10 / psy=1 / psy_rd=1.10:0.00 / mixed_ref=1 / me_range=40 / chroma_me=1 / trellis=2 / 8x8dct=1 / cqm=0 / deadzone=21,11 / fast_pskip=0 / chroma_qp_offset=-4 / threads=8 / lookahead_threads=2 / sliced_threads=0 / nr=0 / decimate=1 / interlaced=0 / bluray_compat=0 / constrained_intra=0 / bframes=16 / b_pyramid=2 / b_adapt=2 / b_bias=0 / direct=1 / weightb=1 / open_gop=0 / weightp=2 / keyint=300 / keyint_min=24 / scenecut=40 / intra_refresh=0 / rc_lookahead=60 / rc=crf / mbtree=1 / crf=17.0 / qcomp=0.60 / qpmin=0 / qpmax=69 / qpstep=4 / ip_ratio=1.40 / aq=1:1.00
  39. Default : Yes
  40. Forced : No
  41.  
  42. Audio #1
  43. ID : 2
  44. Format : AAC LC
  45. Format/Info : Advanced Audio Codec Low Complexity
  46. Codec ID : A_AAC-2
  47. Duration : 10 min 18 s
  48. Bit rate : 96.0 kb/s
  49. Channel(s) : 1 channel
  50. Channel layout : C
  51. Sampling rate : 48.0 kHz
  52. Frame rate : 46.875 FPS (1024 SPF)
  53. Compression mode : Lossy
  54. Delay relative to video : 20 ms
  55. Stream size : 7.00 MiB (1%)
  56. Language : Japanese
  57. Default : Yes
  58. Forced : No
  59.  
  60. Audio #2
  61. ID : 3
  62. Format : AAC LC
  63. Format/Info : Advanced Audio Codec Low Complexity
  64. Codec ID : A_AAC-2
  65. Duration : 10 min 18 s
  66. Bit rate : 125 kb/s
  67. Channel(s) : 2 channels
  68. Channel layout : L R
  69. Sampling rate : 48.0 kHz
  70. Frame rate : 46.875 FPS (1024 SPF)
  71. Compression mode : Lossy
  72. Delay relative to video : 60 ms
  73. Stream size : 9.20 MiB (2%)
  74. Language : English
  75. Default : No
  76. Forced : No
  77.  
  78. Text
  79. ID : 4
  80. Format : ASS
  81. Codec ID : S_TEXT/ASS
  82. Codec ID/Info : Advanced Sub Station Alpha
  83. Duration : 9 min 57 s
  84. Bit rate : 87 b/s
  85. Count of elements : 82
  86. Compression mode : Lossless
  87. Stream size : 6.35 KiB (0%)
  88. Default : Yes
  89. Forced : No
RAW Paste Data