HYBRID_BEING

[Bit] Handa-kun - 02v2 [720p AAC] [B0A77C08].mkv

Jul 24th, 2016
70
Never
Not a member of Pastebin yet? Sign Up, it unlocks many cool features!
  1. General
  2. Unique ID : 191352382382903323429392522914598249922 (0x8FF520D9530B270BA5D3048AD84865C2)
  3. Complete name : [Bit] Handa-kun - 02v2 [720p AAC] [B0A77C08].mkv
  4. Format : Matroska
  5. Format version : Version 4 / Version 2
  6. File size : 430 MiB
  7. Duration : 24 min
  8. Overall bit rate : 2 452 kb/s
  9. Movie name : Handa-kun - 02
  10. Encoded date : UTC 2016-07-18 17:00:42
  11. Writing application : mkvmerge v9.3.1 ('Mask Machine') 64bit
  12. Writing library : libebml v1.3.4 + libmatroska v1.4.5
  13. Attachments : NanumPenScript-Regular.ttf / NotoSans-Bold.ttf / NotoSansCJKkr-Bold.otf / RiiT_0.otf / RiiT_F.otf / Tally_Mark.ttf / tansansan.ttf / timesbd.ttf / 851CHIKARA-DZUYOKU_kanaB.ttf / AHintofSass.ttf / AnnieUseYourTelescope.ttf / arialbd.ttf / AveriaLibre-Bold.ttf / AveriaSerifLibre-Bold.ttf / Boogaloo-Regular.ttf / CabinCondensed-Bold.ttf / CabinSketch-Regular.ttf / ChelseaMarket-Regular.ttf / erasdust.ttf / Eraser.ttf / Geo-Regular.ttf / HappyMonkey-Regular.ttf / impact.ttf / IndieFlower.ttf / Karla-Bold.ttf / Karla-BoldItalic.ttf / Karla-Regular.ttf / LatoWeb-Bold.ttf / LeckerliOne-Regular.ttf / Mandali-Regular.ttf / MeriendaOne-Regular.ttf / Merienda-Regular.ttf / mikiyu-mokomori-kuro.ttf / mikiyu-mokomori-kuro_0.ttf
  14.  
  15. Video
  16. ID : 2
  17. Format : AVC
  18. Format/Info : Advanced Video Codec
  19. Format profile : High@L4.1
  20. Format settings, CABAC : Yes
  21. Format settings, ReFrames : 4 frames
  22. Codec ID : V_MPEG4/ISO/AVC
  23. Duration : 24 min
  24. Bit rate : 2 037 kb/s
  25. Width : 1 280 pixels
  26. Height : 720 pixels
  27. Display aspect ratio : 16:9
  28. Frame rate mode : Constant
  29. Frame rate : 23.976 (24000/1001) FPS
  30. Color space : YUV
  31. Chroma subsampling : 4:2:0
  32. Bit depth : 8 bits
  33. Scan type : Progressive
  34. Bits/(Pixel*Frame) : 0.092
  35. Stream size : 357 MiB (83%)
  36. Writing library : x264 core 129 r2245+729M 1a52e03
  37. Encoding settings : cabac=1 / ref=4 / deblock=1:1:-1 / analyse=0x3:0x113 / me=umh / subme=9 / psy=1 / fade_compensate=0.00 / psy_rd=1.00:0.00 / mixed_ref=1 / me_range=24 / chroma_me=1 / trellis=2 / 8x8dct=1 / cqm=0 / deadzone=21,11 / fast_pskip=1 / chroma_qp_offset=-2 / threads=8 / lookahead_threads=1 / sliced_threads=0 / nr=0 / decimate=1 / interlaced=0 / bluray_compat=0 / constrained_intra=0 / fgo=0 / bframes=9 / b_pyramid=2 / b_adapt=2 / b_bias=0 / direct=1 / weightb=1 / open_gop=0 / weightp=2 / keyint=240 / keyint_min=24 / scenecut=40 / intra_refresh=0 / rc=crf / mbtree=0 / crf=17.5 / qcomp=0.72 / qpmin=0 / qpmax=69 / qpstep=4 / ip_ratio=1.40 / pb_ratio=1.30 / aq=1:0.85
  38. Language : Japanese
  39. Default : Yes
  40. Forced : No
  41. Color range : Limited
  42. Color primaries : BT.709
  43. Transfer characteristics : BT.709
  44. Matrix coefficients : BT.709
  45.  
  46. Audio
  47. ID : 3
  48. Format : AAC
  49. Format/Info : Advanced Audio Codec
  50. Format profile : LC
  51. Codec ID : A_AAC
  52. Duration : 24 min
  53. Bit rate : 192 kb/s
  54. Channel(s) : 2 channels
  55. Channel positions : Front: L R
  56. Sampling rate : 48.0 kHz
  57. Frame rate : 46.875 FPS (1024 spf)
  58. Compression mode : Lossy
  59. Stream size : 33.5 MiB (8%)
  60. Language : Japanese
  61. Default : Yes
  62. Forced : No
  63.  
  64. Text
  65. ID : 1
  66. Format : ASS
  67. Codec ID : S_TEXT/ASS
  68. Codec ID/Info : Advanced Sub Station Alpha
  69. Duration : 24 min
  70. Bit rate : 248 b/s
  71. Count of elements : 669
  72. Compression mode : Lossless
  73. Stream size : 44.4 KiB (0%)
  74. Title : Bit
  75. Default : Yes
  76. Forced : Yes
  77.  
  78. Menu
  79. 00:00:00.000 : :Handa-kun and the Continuation
  80. 00:05:10.000 : :Opening
  81. 00:06:50.000 : :Handa-kun and the Class Rep
  82. 00:14:30.500 : :Handa-kun and the Model
  83. 00:22:20.000 : :Ending
  84. 00:24:09.000 : :Jikai
RAW Paste Data