SHARE
TWEET

Avengers Endgame HD-TC 1080p

dirtyharrys Apr 28th, 2019 190 Never
Not a member of Pastebin yet? Sign Up, it unlocks many cool features!
  1. General
  2. Unique ID                   : 231108373437677749060274001538280637089 (0xADDDDA8AC98826965F861F5427B0C2A1)
  3. Complete name               : E:\SERBdmVuZ2Vyc0VuZGdhbWU.mkv
  4. Format                      : Matroska
  5. Format version              : Version 4
  6. File size                   : 1.60 GiB
  7. Duration                    : 2 h 58 min
  8. Overall bit rate            : 1 284 kb/s
  9. Movie name                  : Avengers Endgame HD-TC / Avengers Endgame HD-TC
  10. Encoded date                : UTC 2019-04-28 15:59:43
  11. Writing application         : mkvmerge v30.1.0 ('Forever And More') 32-bit
  12. Writing library             : libebml v1.3.6 + libmatroska v1.4.9
  13. Copyright                   : Movies HDs 2019
  14. ARTIST                      : HarshLearner
  15.  
  16. Video
  17. ID                          : 1
  18. Format                      : AVC
  19. Format/Info                 : Advanced Video Codec
  20. Format profile              : High@L4
  21. Format settings             : CABAC / 4 Ref Frames
  22. Format settings, CABAC      : Yes
  23. Format settings, ReFrames   : 4 frames
  24. Codec ID                    : V_MPEG4/ISO/AVC
  25. Duration                    : 2 h 58 min
  26. Bit rate                    : 1 090 kb/s
  27. Width                       : 1 920 pixels
  28. Height                      : 816 pixels
  29. Display aspect ratio        : 2.40:1
  30. Frame rate mode             : Variable
  31. Frame rate                  : 24.000 FPS
  32. Color space                 : YUV
  33. Chroma subsampling          : 4:2:0
  34. Bit depth                   : 8 bits
  35. Scan type                   : Progressive
  36. Bits/(Pixel*Frame)          : 0.029
  37. Stream size                 : 1.36 GiB (85%)
  38. Title                       : Avengers Endgame
  39. Writing library             : x264 core 148 r2748 97eaef2
  40. Default                     : Yes
  41. Forced                      : No
  42.  
  43. Audio
  44. ID                          : 2
  45. Format                      : AC-3
  46. Format/Info                 : Audio Coding 3
  47. Commercial name             : Dolby Digital
  48. Codec ID                    : A_AC3
  49. Duration                    : 2 h 58 min
  50. Bit rate mode               : Constant
  51. Bit rate                    : 192 kb/s
  52. Channel(s)                  : 2 channels
  53. Channel layout              : L R
  54. Sampling rate               : 44.1 kHz
  55. Frame rate                  : 28.711 FPS (1536 SPF)
  56. Bit depth                   : 16 bits
  57. Compression mode            : Lossy
  58. Stream size                 : 245 MiB (15%)
  59. Language                    : English
  60. Service kind                : Complete Main
  61. Default                     : Yes
  62. Forced                      : No
  63.  
  64. Text #1
  65. ID                          : 3
  66. Format                      : SSA
  67. Codec ID                    : S_TEXT/SSA
  68. Codec ID/Info               : Sub Station Alpha
  69. Duration                    : 2 h 47 min
  70. Bit rate                    : 103 b/s
  71. Count of elements           : 1903
  72. Compression mode            : Lossless
  73. Stream size                 : 127 KiB (0%)
  74. Language                    : Spanish
  75. Default                     : Yes
  76. Forced                      : No
  77.  
  78. Text #2
  79. ID                          : 4
  80. Format                      : UTF-8
  81. Codec ID                    : S_TEXT/UTF8
  82. Codec ID/Info               : UTF-8 Plain Text
  83. Duration                    : 2 h 47 min
  84. Bit rate                    : 55 b/s
  85. Count of elements           : 1903
  86. Stream size                 : 68.2 KiB (0%)
  87. Language                    : Spanish
  88. Default                     : No
  89. Forced                      : No
RAW Paste Data
We use cookies for various purposes including analytics. By continuing to use Pastebin, you agree to our use of cookies as described in the Cookies Policy. OK, I Understand
 
Top