SHARE
TWEET

さふぁりどらいぶ♪ (Disk 1).cue

a guest Oct 3rd, 2018 168 Never
Not a member of Pastebin yet? Sign Up, it unlocks many cool features!
  1. TITLE "さふぁりどらいぶ♪"
  2. PERFORMER "どうぶつビスケッツ"
  3. REM GENRE "Anime"
  4. REM DATE "2018/10/4"
  5. REM DISCNUMBER 1
  6. REM TOTALDISCS 2
  7. REM DISCID 970BAB0C
  8. FILE "data.bin" WAVE
  9.   TRACK 01 AUDIO
  10.     TITLE "ハッピービスケット"
  11.     PERFORMER "どうぶつビスケッツ"
  12.     SONGWRITER "ミライショウ"
  13.     INDEX 01 00:00:00
  14.   TRACK 02 AUDIO
  15.     TITLE "ホップステップフレンズ"
  16.     PERFORMER "どうぶつビスケッツ"
  17.     SONGWRITER "emon(Tes.)"
  18.     INDEX 00 04:33:62
  19.     INDEX 01 04:34:00
  20.   TRACK 03 AUDIO
  21.     TITLE "マイペースちぇいさー"
  22.     PERFORMER "アライグマとフェネック with サーバル"
  23.     SONGWRITER "no_my"
  24.     INDEX 00 08:21:68
  25.     INDEX 01 08:22:00
  26.   TRACK 04 AUDIO
  27.     TITLE "Poppin’ジャパリズム"
  28.     PERFORMER "どうぶつビスケッツ"
  29.     SONGWRITER "EasyPop"
  30.     INDEX 00 13:10:69
  31.     INDEX 01 13:11:00
  32.   TRACK 05 AUDIO
  33.     TITLE "みんなでがぉ!がぉ!がぉー!"
  34.     PERFORMER "サーバル"
  35.     SONGWRITER "武田城以"
  36.     INDEX 00 17:38:48
  37.     INDEX 01 17:39:00
  38.   TRACK 06 AUDIO
  39.     TITLE "らいくあらいと"
  40.     PERFORMER "フェネック"
  41.     SONGWRITER "sasakure.UK"
  42.     INDEX 00 22:21:66
  43.     INDEX 01 22:22:00
  44.   TRACK 07 AUDIO
  45.     TITLE "おまかせなのだ!"
  46.     PERFORMER "アライグマ"
  47.     SONGWRITER "じーざす(ワンダフル☆オポチュニティ!)"
  48.     INDEX 00 27:08:57
  49.     INDEX 01 27:09:00
  50.   TRACK 08 AUDIO
  51.     TITLE "ファンファン!メロディ♪"
  52.     PERFORMER "どうぶつビスケッツ"
  53.     SONGWRITER "じん"
  54.     INDEX 00 30:49:70
  55.     INDEX 01 30:50:00
  56.   TRACK 09 AUDIO
  57.     TITLE "ぐれーとじゃーにー!"
  58.     PERFORMER "どうぶつビスケッツ"
  59.     SONGWRITER "毛蟹"
  60.     INDEX 00 35:09:62
  61.     INDEX 01 35:10:00
  62.   TRACK 10 AUDIO
  63.     TITLE "何でも言うことを聞いてくれるフェネック"
  64.     PERFORMER "アライグマとフェネック"
  65.     SONGWRITER "GYARI(ココアシガレットP)"
  66.     INDEX 00 39:26:64
  67.     INDEX 01 39:27:00
  68.   TRACK 11 AUDIO
  69.     TITLE "ようこそジャパリパークへ(Xmas ver.)"
  70.     PERFORMER "どうぶつビスケッツ"
  71.     SONGWRITER "大石昌良"
  72.     INDEX 00 44:00:64
  73.     INDEX 01 44:01:00
  74.   TRACK 12 AUDIO
  75.     TITLE "ぼくのフレンド"
  76.     PERFORMER "サーバルとかばんとアライグマとフェネック"
  77.     SONGWRITER "みゆはん"
  78.     INDEX 00 45:15:64
  79.     INDEX 01 45:16:00
RAW Paste Data
We use cookies for various purposes including analytics. By continuing to use Pastebin, you agree to our use of cookies as described in the Cookies Policy. OK, I Understand
 
Top