Interfilm

Untitled

Nov 9th, 2014
189
Never
Not a member of Pastebin yet? Sign Up, it unlocks many cool features!
  1. General
  2. Crows.Explode.2014.Blu.Ray.720p.CINEMANIA.mkv
  3. Format : Matroska
  4. Format version : Version 4 / Version 2
  5. File size : 7.28 GiB
  6. Duration : 2h 10mn
  7. Overall bit rate : 8 005 Kbps
  8. Movie name : Release Group CINEMANIA
  9. Encoded date : UTC 2014-11-09 23:19:37
  10. Writing application : mkvmerge v7.3.0 ('Nouages') 64bit built on Oct 22 2014 18:53:34
  11. Writing library : libebml v1.3.0 + libmatroska v1.4.1
  12.  
  13. Video
  14. ID : 1
  15. Format : AVC
  16. Format/Info : Advanced Video Codec
  17. Format profile : High@L4.1
  18. Format settings, CABAC : Yes
  19. Format settings, ReFrames : 12 frames
  20. Codec ID : V_MPEG4/ISO/AVC
  21. Duration : 2h 10mn
  22. Bit rate : 7 000 Kbps
  23. Width : 1 280 pixels
  24. Height : 534 pixels
  25. Display aspect ratio : 2.40:1
  26. Frame rate mode : Constant
  27. Frame rate : 23.976 fps
  28. Color space : YUV
  29. Chroma subsampling : 4:2:0
  30. Bit depth : 8 bits
  31. Scan type : Progressive
  32. Bits/(Pixel*Frame) : 0.427
  33. Stream size : 6.20 GiB (85%)
  34. Title : Release Group CINEMANIA
  35. Writing library : x264 core 129 r2245+704+36 8e61944 tMod+MixAQ [8-bit@4:2:0 X86_64]
  36. Encoding settings : cabac=1 / ref=12 / deblock=1:-3:-3 / analyse=0x3:0x133 / me=umh / subme=11 / psy=1 / fade_compensate=0.00 / psy_rd=1.05:0.10 / mixed_ref=1 / me_range=32 / chroma_me=1 / trellis=2 / 8x8dct=1 / cqm=0 / deadzone=21,11 / fast_pskip=0 / chroma_qp_offset=-3 / threads=18 / lookahead_threads=3 / sliced_threads=0 / nr=0 / decimate=0 / interlaced=0 / bluray_compat=0 / constrained_intra=0 / fgo=0 / bframes=10 / b_pyramid=2 / b_adapt=2 / b_bias=0 / direct=3 / weightb=1 / open_gop=0 / weightp=2 / keyint=250 / keyint_min=23 / scenecut=40 / intra_refresh=0 / rc_lookahead=80 / rc=2pass / mbtree=1 / bitrate=7000 / ratetol=1.0 / qcomp=0.70 / qpmin=0 / qpmax=69 / qpstep=4 / cplxblur=20.0 / qblur=0.5 / ip_ratio=1.40 / aq=1 / aq-strength=0.80 / aq-sensitivity=10.00 / aq-ifactor=1.00 / aq-pfactor=1.00 / aq-bfactor=1.00 / aq2=0
  37. Language : Japanese
  38. Default : Yes
  39. Forced : No
  40.  
  41. Audio #1
  42. ID : 2
  43. Format : AC-3
  44. Format/Info : Audio Coding 3
  45. Mode extension : CM (complete main)
  46. Format settings, Endianness : Big
  47. Codec ID : A_AC3
  48. Duration : 2h 10mn
  49. Bit rate mode : Constant
  50. Bit rate : 384 Kbps
  51. Channel(s) : 6 channels
  52. Channel positions : Front: L C R, Side: L R, LFE
  53. Sampling rate : 48.0 KHz
  54. Bit depth : 16 bits
  55. Compression mode : Lossy
  56. Stream size : 358 MiB (5%)
  57. Title : Izanami & den904
  58. Language : Russian
  59. Default : Yes
  60. Forced : Yes
  61.  
  62. Audio #2
  63. ID : 3
  64. Format : AC-3
  65. Format/Info : Audio Coding 3
  66. Mode extension : CM (complete main)
  67. Format settings, Endianness : Big
  68. Codec ID : A_AC3
  69. Duration : 2h 10mn
  70. Bit rate mode : Constant
  71. Bit rate : 640 Kbps
  72. Channel(s) : 6 channels
  73. Channel positions : Front: L C R, Side: L R, LFE
  74. Sampling rate : 48.0 KHz
  75. Bit depth : 16 bits
  76. Compression mode : Lossy
  77. Stream size : 596 MiB (8%)
  78. Language : Japanese
  79. Default : No
  80. Forced : No
  81.  
  82. Text #2
  83. ID : 5
  84. Format : UTF-8
  85. Codec ID : S_TEXT/UTF8
  86. Codec ID/Info : UTF-8 Plain Text
  87. Title : ФСГ Phoenix Cor
  88. Language : Russian
  89. Default : No
  90. Forced : No
  91.  
  92. Text #3
  93. ID : 6
  94. Format : UTF-8
  95. Codec ID : S_TEXT/UTF8
  96. Codec ID/Info : UTF-8 Plain Text
  97. Language : English
  98. Default : No
  99. Forced : No
  100.  
  101. Menu
  102. 00:00:00.000 : en:00:00:00.000
  103. 00:14:00.047 : en:00:14:00.047
  104. 00:17:45.689 : en:00:17:45.689
  105. 00:24:15.620 : en:00:24:15.620
  106. 00:26:42.434 : en:00:26:42.434
  107. 00:30:23.279 : en:00:30:23.279
  108. 00:39:00.004 : en:00:39:00.004
  109. 00:44:23.619 : en:00:44:23.619
  110. 00:48:27.070 : en:00:48:27.070
  111. 00:55:44.966 : en:00:55:44.966
  112. 00:59:59.178 : en:00:59:59.178
  113. 01:14:07.651 : en:01:14:07.651
  114. 01:19:07.909 : en:01:19:07.909
  115. 01:22:35.075 : en:01:22:35.075
  116. 01:27:20.985 : en:01:27:20.985
  117. 01:34:03.763 : en:01:34:03.763
  118. 01:40:47.040 : en:01:40:47.040
  119. 01:49:50.208 : en:01:49:50.208
  120. 01:56:20.974 : en:01:56:20.974
  121. 02:01:31.409 : en:02:01:31.409
  122. 02:06:00.386 : en:02:06:00.386
  123. 02:09:51.784 : en:02:09:51.784
RAW Paste Data