Advertisement
yushiro

p.grelan.ulti.remux.yus

Jan 15th, 2021
340
0
Never
Not a member of Pastebin yet? Sign Up, it unlocks many cool features!
text 8.27 KB | None | 0 0
  1. General
  2. Unique ID : 260668762874532220303181127903949580268 (0xC41AFA43E79B7B25F9C806EA0AAF67EC)
  3. Complete name : G:\Greenland, El Último Refugio (2020)[BDRemux 1080p].mkv
  4. Format : Matroska
  5. Format version : Version 4
  6. File size : 29.0 GiB
  7. Duration : 1 h 59 min
  8. Overall bit rate mode : Variable
  9. Overall bit rate : 34.7 Mb/s
  10. Encoded date : UTC 2021-01-15 23:03:33
  11. Writing application : mkvmerge v51.0.0 ('I Wish') 64-bit
  12. Writing library : libebml v1.4.0 + libmatroska v1.6.2
  13.  
  14. Video
  15. ID : 1
  16. ID in the original source m : 4113 (0x1011)
  17. Format : AVC
  18. Format/Info : Advanced Video Codec
  19. Format profile : High@L4.1
  20. Format settings : CABAC / 3 Ref Frames
  21. Format settings, CABAC : Yes
  22. Format settings, Reference : 3 frames
  23. Codec ID : V_MPEG4/ISO/AVC
  24. Duration : 1 h 59 min
  25. Bit rate mode : Variable
  26. Bit rate : 28.0 Mb/s
  27. Maximum bit rate : 30.0 Mb/s
  28. Width : 1 920 pixels
  29. Height : 1 080 pixels
  30. Display aspect ratio : 16:9
  31. Frame rate mode : Constant
  32. Frame rate : 23.976 (24000/1001) FPS
  33. Color space : YUV
  34. Chroma subsampling : 4:2:0
  35. Bit depth : 8 bits
  36. Scan type : Progressive
  37. Bits/(Pixel*Frame) : 0.563
  38. Stream size : 23.3 GiB (80%)
  39. Title : Greenland, El Último Refugio (2020)[BDRemux 1080p]
  40. Writing library : x264 core 146 r2538 121396c
  41. Encoding settings : cabac=1 / ref=4 / deblock=1:-1:-1 / analyse=0x3:0x133 / me=umh / subme=10 / psy=1 / psy_rd=1.00:0.15 / mixed_ref=1 / me_range=24 / chroma_me=1 / trellis=2 / 8x8dct=1 / cqm=0 / deadzone=21,11 / fast_pskip=1 / chroma_qp_offset=-3 / threads=48 / lookahead_threads=4 / sliced_threads=0 / slices=4 / nr=0 / decimate=1 / interlaced=0 / bluray_compat=1 / constrained_intra=0 / bframes=3 / b_pyramid=1 / b_adapt=2 / b_bias=0 / direct=3 / weightb=1 / open_gop=1 / weightp=1 / keyint=24 / keyint_min=1 / scenecut=40 / intra_refresh=0 / rc_lookahead=24 / rc=2pass / mbtree=1 / bitrate=28000 / ratetol=1.0 / qcomp=0.60 / qpmin=0 / qpmax=69 / qpstep=4 / cplxblur=20.0 / qblur=0.5 / vbv_maxrate=30000 / vbv_bufsize=30000 / nal_hrd=vbr / filler=0 / ip_ratio=1.40 / aq=1:1.00
  42. Language : Spanish
  43. Default : No
  44. Forced : No
  45. Color range : Limited
  46. Color primaries : BT.709
  47. Transfer characteristics : BT.709
  48. Matrix coefficients : BT.709
  49. Original source medium : Blu-ray
  50.  
  51. Audio #1
  52. ID : 2
  53. Format : AC-3
  54. Format/Info : Audio Coding 3
  55. Commercial name : Dolby Digital
  56. Codec ID : A_AC3
  57. Duration : 1 h 59 min
  58. Bit rate mode : Constant
  59. Bit rate : 640 kb/s
  60. Channel(s) : 6 channels
  61. Channel layout : L R C LFE Ls Rs
  62. Sampling rate : 48.0 kHz
  63. Frame rate : 31.250 FPS (1536 SPF)
  64. Compression mode : Lossy
  65. Delay relative to video : 2 s 200 ms
  66. Stream size : 547 MiB (2%)
  67. Title : Castellano AC3 5.1
  68. Language : Spanish
  69. Service kind : Complete Main
  70. Default : Yes
  71. Forced : No
  72.  
  73. Audio #2
  74. ID : 3
  75. Format : DTS
  76. Format/Info : Digital Theater Systems
  77. Codec ID : A_DTS
  78. Duration : 1 h 59 min
  79. Bit rate mode : Constant
  80. Bit rate : 1 509 kb/s
  81. Channel(s) : 6 channels
  82. Channel layout : C L R Ls Rs LFE
  83. Sampling rate : 48.0 kHz
  84. Frame rate : 93.750 FPS (512 SPF)
  85. Bit depth : 24 bits
  86. Compression mode : Lossy
  87. Stream size : 1.26 GiB (4%)
  88. Title : Castellano DTS 5.1
  89. Language : Spanish
  90. Default : No
  91. Forced : No
  92.  
  93. Audio #3
  94. ID : 4
  95. ID in the original source m : 4353 (0x1101)
  96. Format : MLP FBA 16-ch
  97. Format/Info : Meridian Lossless Packing FBA with 16-channel presentation
  98. Commercial name : Dolby TrueHD with Dolby Atmos
  99. Codec ID : A_TRUEHD
  100. Duration : 1 h 59 min
  101. Bit rate mode : Variable
  102. Bit rate : 3 959 kb/s
  103. Maximum bit rate : 7 086 kb/s
  104. Channel(s) : 8 channels
  105. Channel layout : L R C LFE Ls Rs Lb Rb
  106. Sampling rate : 48.0 kHz
  107. Frame rate : 1 200.000 FPS (40 SPF)
  108. Compression mode : Lossless
  109. Stream size : 3.31 GiB (11%)
  110. Title : Inglés True HD Atmos Surround 7.1
  111. Language : English
  112. Default : No
  113. Forced : No
  114. Original source medium : Blu-ray
  115. Number of dynamic objects : 11
  116. Bed channel count : 1 channel
  117. Bed channel configuration : LFE
  118.  
  119. Audio #4
  120. ID : 5
  121. ID in the original source m : 4353 (0x1101)
  122. Format : AC-3
  123. Format/Info : Audio Coding 3
  124. Commercial name : Dolby Digital
  125. Codec ID : A_AC3
  126. Duration : 1 h 59 min
  127. Bit rate mode : Constant
  128. Bit rate : 640 kb/s
  129. Channel(s) : 6 channels
  130. Channel layout : L R C LFE Ls Rs
  131. Sampling rate : 48.0 kHz
  132. Frame rate : 31.250 FPS (1536 SPF)
  133. Compression mode : Lossy
  134. Stream size : 547 MiB (2%)
  135. Title : Inglés AC3 Surround 5.1
  136. Language : English
  137. Service kind : Complete Main
  138. Default : No
  139. Forced : No
  140. Original source medium : Blu-ray
  141.  
  142. Text #1
  143. ID : 6
  144. Format : UTF-8
  145. Codec ID : S_TEXT/UTF8
  146. Codec ID/Info : UTF-8 Plain Text
  147. Duration : 1 h 15 min
  148. Bit rate : 0 b/s
  149. Count of elements : 17
  150. Stream size : 542 Bytes (0%)
  151. Title : Castellano Forzados
  152. Language : Spanish
  153. Default : Yes
  154. Forced : Yes
  155.  
  156. Text #2
  157. ID : 7
  158. Format : UTF-8
  159. Codec ID : S_TEXT/UTF8
  160. Codec ID/Info : UTF-8 Plain Text
  161. Duration : 1 h 52 min
  162. Bit rate : 50 b/s
  163. Count of elements : 1498
  164. Stream size : 41.6 KiB (0%)
  165. Title : Castellano Completos
  166. Language : Spanish
  167. Default : No
  168. Forced : No
  169.  
  170. Text #3
  171. ID : 8
  172. Format : UTF-8
  173. Codec ID : S_TEXT/UTF8
  174. Codec ID/Info : UTF-8 Plain Text
  175. Duration : 1 h 52 min
  176. Bit rate : 59 b/s
  177. Count of elements : 1496
  178. Stream size : 48.7 KiB (0%)
  179. Title : Inglés Completos
  180. Language : English
  181. Default : No
  182. Forced : No
  183.  
  184. Menu
  185. 00:00:00.000 : en:Chapter 01
  186. 00:10:58.949 : en:Chapter 02
  187. 00:22:35.520 : en:Chapter 03
  188. 00:32:00.335 : en:Chapter 04
  189. 00:42:23.290 : en:Chapter 05
  190. 00:53:29.915 : en:Chapter 06
  191. 01:04:47.508 : en:Chapter 07
  192. 01:11:32.121 : en:Chapter 08
  193. 01:22:15.263 : en:Chapter 09
  194. 01:34:12.772 : en:Chapter 10
  195. 01:42:04.201 : en:Chapter 11
  196. 01:54:06.464 : en:Chapter 12
  197.  
  198.  
Advertisement
Add Comment
Please, Sign In to add comment
Advertisement