SHARE
TWEET

Twelve Monkeys REMASTERED BluRay 720p

dirtyharrys Apr 30th, 2019 85 Never
Not a member of Pastebin yet? Sign Up, it unlocks many cool features!
  1. General
  2. Unique ID                   : 69045982723947317505338875513514995254 (0x33F1C5C6EF908228C97A43971987AE36)
  3. Complete name               : E:\QlJSVHdlbHZlTW9ua2V5c1JFTUFTVEVSRUQ.mkv
  4. Format                      : Matroska
  5. Format version              : Version 4
  6. File size                   : 2.05 GiB
  7. Duration                    : 2 h 9 min
  8. Overall bit rate            : 2 269 kb/s
  9. Movie name                  : Twelve Monkeys REMASTERED BR-RIP / Twelve Monkeys REMASTERED BR-RIP
  10. Encoded date                : UTC 2019-04-30 07:58:37
  11. Writing application         : mkvmerge v30.1.0 ('Forever And More') 32-bit
  12. Writing library             : libebml v1.3.6 + libmatroska v1.4.9
  13. Copyright                   : Movies HDs 2019
  14. ARTIST                      : HarshLearner
  15.  
  16. Video
  17. ID                          : 1
  18. Format                      : AVC
  19. Format/Info                 : Advanced Video Codec
  20. Format profile              : High@L4.1
  21. Format settings             : CABAC / 4 Ref Frames
  22. Format settings, CABAC      : Yes
  23. Format settings, ReFrames   : 4 frames
  24. Codec ID                    : V_MPEG4/ISO/AVC
  25. Duration                    : 2 h 9 min
  26. Bit rate                    : 1 500 kb/s
  27. Width                       : 1 280 pixels
  28. Height                      : 688 pixels
  29. Display aspect ratio        : 1.85:1
  30. Frame rate mode             : Constant
  31. Frame rate                  : 23.976 (24000/1001) FPS
  32. Original frame rate         : 23.976 (23976/1000) FPS
  33. Color space                 : YUV
  34. Chroma subsampling          : 4:2:0
  35. Bit depth                   : 8 bits
  36. Scan type                   : Progressive
  37. Bits/(Pixel*Frame)          : 0.071
  38. Stream size                 : 1.36 GiB (66%)
  39. Title                       : Twelve Monkeys REMASTERED
  40. Writing library             : x264 core 152 r2851M ba24899
  41. Default                     : Yes
  42. Forced                      : No
  43.  
  44. Audio #1
  45. ID                          : 2
  46. Format                      : AC-3
  47. Format/Info                 : Audio Coding 3
  48. Commercial name             : Dolby Digital
  49. Codec ID                    : A_AC3
  50. Duration                    : 2 h 9 min
  51. Bit rate mode               : Constant
  52. Bit rate                    : 384 kb/s
  53. Channel(s)                  : 6 channels
  54. Channel layout              : L R C LFE Ls Rs
  55. Sampling rate               : 48.0 kHz
  56. Frame rate                  : 31.250 FPS (1536 SPF)
  57. Bit depth                   : 16 bits
  58. Compression mode            : Lossy
  59. Stream size                 : 356 MiB (17%)
  60. Language                    : English
  61. Service kind                : Complete Main
  62. Default                     : No
  63. Forced                      : No
  64.  
  65. Audio #2
  66. ID                          : 3
  67. Format                      : AC-3
  68. Format/Info                 : Audio Coding 3
  69. Commercial name             : Dolby Digital
  70. Codec ID                    : A_AC3
  71. Duration                    : 2 h 9 min
  72. Bit rate mode               : Constant
  73. Bit rate                    : 384 kb/s
  74. Channel(s)                  : 6 channels
  75. Channel layout              : L R C LFE Ls Rs
  76. Sampling rate               : 48.0 kHz
  77. Frame rate                  : 31.250 FPS (1536 SPF)
  78. Bit depth                   : 16 bits
  79. Compression mode            : Lossy
  80. Delay relative to video     : 20 ms
  81. Stream size                 : 355 MiB (17%)
  82. Language                    : Spanish
  83. Service kind                : Complete Main
  84. Default                     : Yes
  85. Forced                      : Yes
  86.  
  87. Text #1
  88. ID                          : 4
  89. Format                      : UTF-8
  90. Codec ID                    : S_TEXT/UTF8
  91. Codec ID/Info               : UTF-8 Plain Text
  92. Duration                    : 2 h 5 min
  93. Bit rate                    : 69 b/s
  94. Count of elements           : 1687
  95. Stream size                 : 64.2 KiB (0%)
  96. Language                    : English
  97. Default                     : No
  98. Forced                      : No
  99.  
  100. Text #2
  101. ID                          : 5
  102. Format                      : UTF-8
  103. Codec ID                    : S_TEXT/UTF8
  104. Codec ID/Info               : UTF-8 Plain Text
  105. Duration                    : 2 h 5 min
  106. Bit rate                    : 72 b/s
  107. Count of elements           : 1766
  108. Stream size                 : 66.9 KiB (0%)
  109. Title                       : SDH
  110. Language                    : English
  111. Default                     : No
  112. Forced                      : No
  113.  
  114. Text #3
  115. ID                          : 6
  116. Format                      : UTF-8
  117. Codec ID                    : S_TEXT/UTF8
  118. Codec ID/Info               : UTF-8 Plain Text
  119. Duration                    : 2 h 4 min
  120. Bit rate                    : 60 b/s
  121. Count of elements           : 1682
  122. Stream size                 : 55.2 KiB (0%)
  123. Language                    : Spanish
  124. Default                     : Yes
  125. Forced                      : Yes
  126.  
  127. Menu
  128. 00:00:00.000                : :Chapter 01
  129. 00:10:55.738                : :Chapter 02
  130. 00:21:27.995                : :Chapter 03
  131. 00:29:26.181                : :Chapter 04
  132. 00:53:13.273                : :Chapter 05
  133. 01:06:31.571                : :Chapter 06
  134. 01:15:49.670                : :Chapter 07
  135. 01:26:02.407                : :Chapter 08
  136. 01:36:25.321                : :Chapter 09
  137. 01:46:31.635                : :Chapter 10
  138. 01:57:31.544                : :Chapter 11
RAW Paste Data
We use cookies for various purposes including analytics. By continuing to use Pastebin, you agree to our use of cookies as described in the Cookies Policy. OK, I Understand
 
Top