SHARE
TWEET

Untitled

mft39anton Jan 18th, 2018 312 Never
Not a member of Pastebin yet? Sign Up, it unlocks many cool features!
  1. General
  2. Complete name                            : D:\Users\ILTP\Downloads\Korean_War_(2013)_\01--Motion_Picture_History_of_the_Korean_War_.mp4
  3. Format                                   : MPEG-4
  4. Format profile                           : Base Media
  5. Codec ID                                 : isom (isom/avc1/iso6)
  6. File size                                : 340 MiB
  7. Duration                                 : 55 min 32 s
  8. Overall bit rate mode                    : Variable
  9. Overall bit rate                         : 856 kb/s
  10. Encoded date                             : UTC 2016-05-03 05:36:52
  11. Tagged date                              : UTC 2016-05-03 05:36:52
  12.  
  13. Video
  14. ID                                       : 1
  15. Format                                   : AVC
  16. Format/Info                              : Advanced Video Codec
  17. Format profile                           : High@L3.1
  18. Format settings                          : 6 Ref Frames
  19. Format settings, CABAC                   : No
  20. Format settings, RefFrames               : 6 frames
  21. Codec ID                                 : avc1
  22. Codec ID/Info                            : Advanced Video Coding
  23. Duration                                 : 55 min 32 s
  24. Bit rate                                 : 784 kb/s
  25. Maximum bit rate                         : 2 495 kb/s
  26. Width                                    : 960 pixels
  27. Height                                   : 720 pixels
  28. Display aspect ratio                     : 4:3
  29. Frame rate mode                          : Constant
  30. Frame rate                               : 25.000 FPS
  31. Color space                              : YUV
  32. Chroma subsampling                       : 4:2:0
  33. Bit depth                                : 8 bits
  34. Scan type                                : Progressive
  35. Bits/(Pixel*Frame)                       : 0.045
  36. Stream size                              : 311 MiB (92%)
  37. Title                                    : 264@GPAC0.5.2-DEV-rev248-g39d5978-master
  38. Writing library                          : x264 core 146 r2538 121396c
  39. Encoding settings                        : cabac=0 / ref=6 / deblock=0:0:0 / analyse=0x3:0x133 / me=umh / subme=9 / psy=1 / psy_rd=1.00:0.00 / mixed_ref=1 / me_range=16 / chroma_me=1 / trellis=2 / 8x8dct=1 / cqm=0 / deadzone=21,11 / fast_pskip=0 / chroma_qp_offset=-2 / threads=3 / lookahead_threads=1 / sliced_threads=0 / nr=0 / decimate=1 / interlaced=0 / bluray_compat=0 / constrained_intra=0 / bframes=4 / b_pyramid=2 / b_adapt=2 / b_bias=0 / direct=3 / weightb=0 / open_gop=0 / weightp=0 / keyint=250 / keyint_min=25 / scenecut=40 / intra_refresh=0 / rc_lookahead=40 / rc=2pass / mbtree=1 / bitrate=784 / ratetol=1.0 / qcomp=0.60 / qpmin=0 / qpmax=69 / qpstep=4 / cplxblur=20.0 / qblur=0.5 / ip_ratio=1.40 / aq=1:1.00
  40. Encoded date                             : UTC 2016-05-03 05:36:52
  41. Tagged date                              : UTC 2016-05-03 05:37:00
  42.  
  43. Audio
  44. ID                                       : 2
  45. Format                                   : AAC
  46. Format/Info                              : Advanced Audio Codec
  47. Format profile                           : HE-AACv2 / HE-AAC / LC
  48. Format settings                          : Explicit
  49. Codec ID                                 : mp4a-40-2
  50. Duration                                 : 55 min 32 s
  51. Bit rate mode                            : Variable
  52. Bit rate                                 : 69.0 kb/s
  53. Maximum bit rate                         : 74.6 kb/s
  54. Channel(s)                               : 2 channels / 1 channel / 1 channel
  55. Channel positions                        : Front: L R / Front: C / Front: C
  56. Sampling rate                            : 48.0 kHz / 48.0 kHz / 24.0 kHz
  57. Frame rate                               : 23.438 FPS (1024 SPF)
  58. Compression mode                         : Lossy
  59. Stream size                              : 27.4 MiB (8%)
  60. Encoded date                             : UTC 2016-05-02 22:47:11
  61. Tagged date                              : UTC 2016-05-03 05:37:00
RAW Paste Data
We use cookies for various purposes including analytics. By continuing to use Pastebin, you agree to our use of cookies as described in the Cookies Policy. OK, I Understand
Not a member of Pastebin yet?
Sign Up, it unlocks many cool features!
 
Top