Henry_Kr

SS1986-S02

Apr 28th, 2020
140
Never
Not a member of Pastebin yet? Sign Up, it unlocks many cool features!
  1. Video
  2. ID : 1
  3. Format : AVC
  4. Format/Info : Advanced Video Codec
  5. Format profile : High@L4.2
  6. Format settings : CABAC / 4 Ref Frames
  7. Format settings, CABAC : Yes
  8. Format settings, Reference : 4 frames
  9. Muxing mode : Header stripping
  10. Codec ID : V_MPEG4/ISO/AVC
  11. Duration : 24 min 20 s
  12. Bit rate : 7 000 kb/s
  13. Width : 1 440 pixels
  14. Height : 1 080 pixels
  15. Display aspect ratio : 4:3
  16. Frame rate mode : Constant
  17. Frame rate : 23.976 (24000/1001) FPS
  18. Color space : YUV
  19. Chroma subsampling : 4:2:0
  20. Bit depth : 8 bits
  21. Scan type : Progressive
  22. Bits/(Pixel*Frame) : 0.188
  23. Stream size : 1.17 GiB (90%)
  24. Title : Saint.Seiya.1986.S01E25.A.Revelação.REPACK.1080p.Bluray.[CartoonNOW]
  25. Writing library : x264 core 157 r2935 545de2f
  26. Language : Japanese
  27. Default : Yes
  28. Forced : No
  29. Color range : Limited
  30. Color primaries : BT.709
  31. Transfer characteristics : BT.709
  32. Matrix coefficients : BT.709
  33.  
  34. Audio #1
  35. ID : 2
  36. Format : AC-3
  37. Format/Info : Audio Coding 3
  38. Commercial name : Dolby Digital
  39. Muxing mode : Header stripping
  40. Codec ID : A_AC3
  41. Duration : 24 min 20 s
  42. Bit rate mode : Constant
  43. Bit rate : 224 kb/s
  44. Channel(s) : 2 channels
  45. Channel layout : L R
  46. Sampling rate : 48.0 kHz
  47. Frame rate : 31.250 FPS (1536 SPF)
  48. Compression mode : Lossy
  49. Stream size : 39.0 MiB (3%)
  50. Title : AC3 2.0 (Álamo)
  51. Language : Portuguese
  52. Service kind : Complete Main
  53. Default : Yes
  54. Forced : No
  55.  
  56. Audio #2
  57. ID : 3
  58. Format : AC-3
  59. Format/Info : Audio Coding 3
  60. Commercial name : Dolby Digital
  61. Muxing mode : Header stripping
  62. Codec ID : A_AC3
  63. Duration : 24 min 20 s
  64. Bit rate mode : Constant
  65. Bit rate : 192 kb/s
  66. Channel(s) : 2 channels
  67. Channel layout : L R
  68. Sampling rate : 48.0 kHz
  69. Frame rate : 31.250 FPS (1536 SPF)
  70. Compression mode : Lossy
  71. Stream size : 33.4 MiB (3%)
  72. Title : AC3 2.0 (Gota Mágica)
  73. Language : Portuguese
  74. Service kind : Complete Main
  75. Default : No
  76. Forced : No
  77.  
  78. Audio #3
  79. ID : 4
  80. Format : AC-3
  81. Format/Info : Audio Coding 3
  82. Commercial name : Dolby Digital
  83. Muxing mode : Header stripping
  84. Codec ID : A_AC3
  85. Duration : 24 min 20 s
  86. Bit rate mode : Constant
  87. Bit rate : 192 kb/s
  88. Channel(s) : 2 channels
  89. Channel layout : L R
  90. Sampling rate : 48.0 kHz
  91. Frame rate : 31.250 FPS (1536 SPF)
  92. Compression mode : Lossy
  93. Stream size : 33.4 MiB (3%)
  94. Title : AC3 2.0
  95. Language : Japanese
  96. Service kind : Complete Main
  97. Default : No
  98. Forced : No
  99.  
  100. Text
  101. ID : 5
  102. Format : PGS
  103. Muxing mode : zlib
  104. Codec ID : S_HDMV/PGS
  105. Codec ID/Info : Picture based subtitle format used on BDs/HD-DVDs
  106. Title : Completa
  107. Language : Portuguese
  108. Default : No
  109. Forced : No
  110.  
  111. Menu
  112. 00:00:00.000 : en:(01)00:00:00:000
  113. 00:01:25.085 : en:(02)00:01:25:085
  114. 00:11:23.683 : en:(03)00:11:23:683
  115. 00:22:45.739 : en:(04)00:22:45:739
  116. 00:23:51.054 : en:(05)00:23:51:054
RAW Paste Data