SHARE
TWEET

Gandhi.1982.1080p.BluRay.REMUX.AVC.TrueHD.5.1-FGT

a guest Jun 13th, 2019 34 Never
Not a member of Pastebin yet? Sign Up, it unlocks many cool features!
  1. General
  2. Unique ID                                : 193467837282833565881502674889211056918 (0x918C8CD4005BC11C180B139F18331316)
  3. Complete name                            : Gandhi.1982.1080p.BluRay.REMUX.AVC.TrueHD.5.1-FGT.mkv
  4. Format                                   : Matroska
  5. Format version                           : Version 4
  6. File size                                : 33.5 GiB
  7. Duration                                 : 3 h 11 min
  8. Overall bit rate mode                    : Variable
  9. Overall bit rate                         : 25.1 Mb/s
  10. Movie name                               : Gandhi.1982.1080p.BluRay.REMUX.AVC.TrueHD.5.1-FGT
  11. Encoded date                             : UTC 2018-11-22 11:06:28
  12. Writing application                      : mkvmerge v28.2.0 ('The Awakening') 64-bit
  13. Writing library                          : libebml v1.3.6 + libmatroska v1.4.9
  14. Cover                                    : Yes
  15. Attachments                              : cover_land.jpg / small_cover.jpg / small_cover_land.jpg / cover.jpg
  16.  
  17. Video
  18. ID                                       : 1
  19. Format                                   : AVC
  20. Format/Info                              : Advanced Video Codec
  21. Format profile                           : High@L4.1
  22. Format settings                          : CABAC / 2 Ref Frames
  23. Format settings, CABAC                   : Yes
  24. Format settings, Reference frames        : 2 frames
  25. Codec ID                                 : V_MPEG4/ISO/AVC
  26. Duration                                 : 3 h 11 min
  27. Bit rate mode                            : Variable
  28. Bit rate                                 : 23.0 Mb/s
  29. Width                                    : 1 920 pixels
  30. Height                                   : 1 080 pixels
  31. Display aspect ratio                     : 16:9
  32. Frame rate mode                          : Constant
  33. Frame rate                               : 23.976 (24000/1001) FPS
  34. Color space                              : YUV
  35. Chroma subsampling                       : 4:2:0
  36. Bit depth                                : 8 bits
  37. Scan type                                : Progressive
  38. Bits/(Pixel*Frame)                       : 0.462
  39. Stream size                              : 30.7 GiB (91%)
  40. Title                                    : Gandhi.1982.1080p.BluRay.REMUX.AVC.TrueHD.5.1-FGT
  41. Language                                 : English
  42. Default                                  : No
  43. Forced                                   : No
  44.  
  45. Audio #1
  46. ID                                       : 2
  47. Format                                   : MLP FBA
  48. Format/Info                              : Meridian Lossless Packing FBA
  49. Commercial name                          : Dolby TrueHD
  50. Codec ID                                 : A_TRUEHD
  51. Duration                                 : 3 h 11 min
  52. Bit rate mode                            : Variable
  53. Bit rate                                 : 1 237 kb/s
  54. Maximum bit rate                         : 2 376 kb/s
  55. Channel(s)                               : 6 channels
  56. Channel layout                           : L R C LFE Ls Rs
  57. Sampling rate                            : 48.0 kHz
  58. Frame rate                               : 1 200.000 FPS (40 SPF)
  59. Compression mode                         : Lossless
  60. Stream size                              : 1.65 GiB (5%)
  61. Title                                    : Gandhi.1982.1080p.BluRay.REMUX.AVC.TrueHD.5.1-FGT
  62. Language                                 : English
  63. Default                                  : Yes
  64. Forced                                   : No
  65.  
  66. Audio #2
  67. ID                                       : 3
  68. Format                                   : AC-3
  69. Format/Info                              : Audio Coding 3
  70. Commercial name                          : Dolby Digital
  71. Codec ID                                 : A_AC3
  72. Duration                                 : 3 h 11 min
  73. Bit rate mode                            : Constant
  74. Bit rate                                 : 640 kb/s
  75. Channel(s)                               : 6 channels
  76. Channel layout                           : L R C LFE Ls Rs
  77. Sampling rate                            : 48.0 kHz
  78. Frame rate                               : 31.250 FPS (1536 SPF)
  79. Bit depth                                : 16 bits
  80. Compression mode                         : Lossy
  81. Stream size                              : 875 MiB (3%)
  82. Title                                    : Gandhi.1982.1080p.BluRay.REMUX.AVC.TrueHD.5.1-FGT
  83. Language                                 : English
  84. Service kind                             : Complete Main
  85. Default                                  : No
  86. Forced                                   : No
  87.  
  88. Audio #3
  89. ID                                       : 4
  90. Format                                   : AC-3
  91. Format/Info                              : Audio Coding 3
  92. Commercial name                          : Dolby Digital
  93. Codec ID                                 : A_AC3
  94. Duration                                 : 3 h 11 min
  95. Bit rate mode                            : Constant
  96. Bit rate                                 : 192 kb/s
  97. Channel(s)                               : 2 channels
  98. Channel layout                           : L R
  99. Sampling rate                            : 48.0 kHz
  100. Frame rate                               : 31.250 FPS (1536 SPF)
  101. Bit depth                                : 16 bits
  102. Compression mode                         : Lossy
  103. Stream size                              : 263 MiB (1%)
  104. Title                                    : Gandhi.1982.1080p.BluRay.REMUX.AVC.TrueHD.5.1-FGT
  105. Language                                 : English
  106. Service kind                             : Complete Main
  107. Default                                  : No
  108. Forced                                   : No
  109.  
  110. Text
  111. ID                                       : 5
  112. Format                                   : PGS
  113. Muxing mode                              : zlib
  114. Codec ID                                 : S_HDMV/PGS
  115. Codec ID/Info                            : Picture based subtitle format used on BDs/HD-DVDs
  116. Duration                                 : 3 h 1 min
  117. Bit rate                                 : 28.5 kb/s
  118. Count of elements                        : 3895
  119. Stream size                              : 37.1 MiB (0%)
  120. Title                                    : English-PGS
  121. Language                                 : English
  122. Default                                  : Yes
  123. Forced                                   : No
  124.  
  125. Menu
  126. 00:00:00.000                             : en:Chapter 01
  127. 00:00:58.016                             : en:Chapter 02
  128. 00:01:41.392                             : en:Chapter 03
  129. 00:02:11.131                             : en:Chapter 04
  130. 00:03:05.810                             : en:Chapter 05
  131. 00:04:20.885                             : en:Chapter 06
  132. 00:06:21.589                             : en:Chapter 07
  133. 00:07:11.639                             : en:Chapter 08
  134. 00:08:21.792                             : en:Chapter 09
  135. 00:09:21.894                             : en:Chapter 10
  136. 00:10:31.380                             : en:Chapter 11
  137. 00:12:16.652                             : en:Chapter 12
  138. 00:15:11.827                             : en:Chapter 13
  139. 00:16:26.652                             : en:Chapter 14
  140. 00:16:51.635                             : en:Chapter 15
  141. 00:17:36.722                             : en:Chapter 16
  142. 00:18:51.755                             : en:Chapter 17
  143. 00:19:41.805                             : en:Chapter 18
  144. 00:22:37.314                             : en:Chapter 19
  145. 00:23:37.124                             : en:Chapter 20
  146. 00:26:02.644                             : en:Chapter 21
  147. 00:31:23.047                             : en:Chapter 22
  148. 00:31:53.161                             : en:Chapter 23
  149. 00:36:13.588                             : en:Chapter 24
  150. 00:42:28.170                             : en:Chapter 25
  151. 00:46:43.675                             : en:Chapter 26
  152. 00:47:14.039                             : en:Chapter 27
  153. 00:53:38.840                             : en:Chapter 28
  154. 00:59:29.607                             : en:Chapter 29
  155. 01:00:34.505                             : en:Chapter 30
  156. 01:08:25.309                             : en:Chapter 31
  157. 01:09:05.516                             : en:Chapter 32
  158. 01:15:05.918                             : en:Chapter 33
  159. 01:17:15.672                             : en:Chapter 34
  160. 01:20:41.169                             : en:Chapter 35
  161. 01:21:40.645                             : en:Chapter 36
  162. 01:26:16.129                             : en:Chapter 37
  163. 01:37:21.836                             : en:Chapter 38
  164. 01:40:22.307                             : en:Chapter 39
  165. 01:42:57.171                             : en:Chapter 40
  166. 01:47:22.060                             : en:Chapter 41
  167. 01:50:47.766                             : en:Chapter 42
  168. 01:51:57.544                             : en:Chapter 43
  169. 01:53:52.534                             : en:Chapter 44
  170. 01:58:53.376                             : en:Chapter 45
  171. 01:59:33.416                             : en:Chapter 46
  172. 02:00:23.507                             : en:Chapter 47
  173. 02:01:18.020                             : en:Chapter 48
  174. 02:04:28.752                             : en:Chapter 49
  175. 02:07:09.038                             : en:Chapter 50
  176. 02:10:29.196                             : en:Chapter 51
  177. 02:14:38.820                             : en:Chapter 52
  178. 02:18:09.489                             : en:Chapter 53
  179. 02:20:51.067                             : en:Chapter 54
  180. 02:21:39.115                             : en:Chapter 55
  181. 02:22:44.806                             : en:Chapter 56
  182. 02:24:39.420                             : en:Chapter 57
  183. 02:25:44.402                             : en:Chapter 58
  184. 02:26:15.099                             : en:Chapter 59
  185. 02:26:39.582                             : en:Chapter 60
  186. 02:30:45.286                             : en:Chapter 61
  187. 02:32:00.194                             : en:Chapter 62
  188. 02:32:25.219                             : en:Chapter 63
  189. 02:33:15.561                             : en:Chapter 64
  190. 02:33:50.512                             : en:Chapter 65
  191. 02:35:15.014                             : en:Chapter 66
  192. 02:35:49.965                             : en:Chapter 67
  193. 02:36:30.422                             : en:Chapter 68
  194. 02:37:40.826                             : en:Chapter 69
  195. 02:39:40.529                             : en:Chapter 70
  196. 02:40:00.549                             : en:Chapter 71
  197. 02:41:29.012                             : en:Chapter 72
  198. 02:41:53.995                             : en:Chapter 73
  199. 02:42:30.782                             : en:Chapter 74
  200. 02:42:55.974                             : en:Chapter 75
  201. 02:48:26.012                             : en:Chapter 76
  202. 02:58:31.867                             : en:Chapter 77
  203. 02:59:52.031                             : en:Chapter 78
  204. 03:01:07.106                             : en:Chapter 79
  205. 03:03:02.262                             : en:Chapter 80
  206. 03:03:56.900                             : en:Chapter 81
RAW Paste Data
We use cookies for various purposes including analytics. By continuing to use Pastebin, you agree to our use of cookies as described in the Cookies Policy. OK, I Understand
 
Top