Guest User

Slums.of.Beverly.Hills.1998.1080p.BluRay.X264-AMIABLE

a guest
May 9th, 2019
22
Never
Not a member of Pastebin yet? Sign Up, it unlocks many cool features!
  1. General
  2. Complete name                            : Slums.of.Beverly.Hills.1998.1080p.BluRay.X264-AMIABLE.mkv
  3. Format                                   : Matroska
  4. Format version                           : Version 2
  5. File size                                : 8.74 GiB
  6. Duration                                 : 1 h 31 min
  7. Overall bit rate                         : 13.7 Mb/s
  8. Writing application                      : mkvmerge v4.1.1 ('Bouncin' Back') built on Jul  3 2010 22:54:08
  9. Writing library                          : libebml v1.0.0 + libmatroska v1.0
  10.  
  11. Video
  12. ID                                       : 1
  13. Format                                   : AVC
  14. Format/Info                              : Advanced Video Codec
  15. Format profile                           : High@L4.1
  16. Format settings                          : CABAC / 4 Ref Frames
  17. Format settings, CABAC                   : Yes
  18. Format settings, Reference frames        : 4 frames
  19. Codec ID                                 : V_MPEG4/ISO/AVC
  20. Duration                                 : 1 h 31 min
  21. Bit rate                                 : 13.1 Mb/s
  22. Width                                    : 1 920 pixels
  23. Height                                   : 1 040 pixels
  24. Display aspect ratio                     : 1.85:1
  25. Frame rate mode                          : Constant
  26. Frame rate                               : 23.976 (24000/1001) FPS
  27. Color space                              : YUV
  28. Chroma subsampling                       : 4:2:0
  29. Bit depth                                : 8 bits
  30. Scan type                                : Progressive
  31. Bits/(Pixel*Frame)                       : 0.274
  32. Stream size                              : 8.16 GiB (93%)
  33. Writing library                          : x264 core 140 r2377 1ca7bb9
  34. Encoding settings                        : cabac=1 / ref=4 / deblock=1:-3:-3 / analyse=0x3:0x113 / me=umh / subme=8 / psy=1 / psy_rd=1.00:0.00 / mixed_ref=1 / me_range=16 / chroma_me=1 / trellis=1 / 8x8dct=1 / cqm=0 / deadzone=21,11 / fast_pskip=1 / chroma_qp_offset=-2 / threads=12 / lookahead_threads=2 / sliced_threads=0 / nr=0 / decimate=1 / interlaced=0 / bluray_compat=0 / constrained_intra=0 / bframes=3 / b_pyramid=2 / b_adapt=2 / b_bias=0 / direct=3 / weightb=1 / open_gop=0 / weightp=2 / keyint=240 / keyint_min=24 / scenecut=40 / intra_refresh=0 / rc_lookahead=50 / rc=2pass / mbtree=1 / bitrate=13102 / ratetol=1.0 / qcomp=0.60 / qpmin=0 / qpmax=69 / qpstep=4 / cplxblur=20.0 / qblur=0.5 / ip_ratio=1.40 / aq=1:1.00
  35. Language                                 : English
  36. Default                                  : Yes
  37. Forced                                   : No
  38.  
  39. Audio
  40. ID                                       : 2
  41. Format                                   : AC-3
  42. Format/Info                              : Audio Coding 3
  43. Commercial name                          : Dolby Digital
  44. Codec ID                                 : A_AC3
  45. Duration                                 : 1 h 31 min
  46. Bit rate mode                            : Constant
  47. Bit rate                                 : 640 kb/s
  48. Channel(s)                               : 6 channels
  49. Channel(s)_Original                      : 2 channels
  50. Channel layout                           : L R
  51. Sampling rate                            : 48.0 kHz
  52. Frame rate                               : 31.250 FPS (1536 SPF)
  53. Bit depth                                : 16 bits
  54. Compression mode                         : Lossy
  55. Stream size                              : 417 MiB (5%)
  56. Language                                 : English
  57. Service kind                             : Complete Main
  58. Default                                  : Yes
  59. Forced                                   : No
  60.  
  61. Menu
  62. 00:00:00.000                             : en:00:00:00.000
  63. 00:06:27.387                             : en:00:06:27.387
  64. 00:12:32.752                             : en:00:12:32.752
  65. 00:22:04.323                             : en:00:22:04.323
  66. 00:28:37.716                             : en:00:28:37.716
  67. 00:34:04.042                             : en:00:34:04.042
  68. 00:43:07.585                             : en:00:43:07.585
  69. 00:49:23.961                             : en:00:49:23.961
  70. 00:54:33.270                             : en:00:54:33.270
  71. 01:02:29.746                             : en:01:02:29.746
  72. 01:11:02.258                             : en:01:11:02.258
  73. 01:22:01.917                             : en:01:22:01.917
RAW Paste Data