SHARE
TWEET

Untitled

a guest Jul 14th, 2018 116 Never
Not a member of Pastebin yet? Sign Up, it unlocks many cool features!
  1. TITLE "Die Brut"
  2. PERFORMER "Goethes Erben"
  3. REM DATE "1993"
  4. REM DISCID 3C055305
  5. FILE "01-01 Goethes Erben - Die Brut.wav" WAVE
  6.   TRACK 01 AUDIO
  7.     TITLE "Die Brut"
  8.     PERFORMER "Goethes Erben"
  9.     INDEX 01 00:00:00
  10.   TRACK 02 AUDIO
  11.     TITLE "Stilleben"
  12.     PERFORMER "Goethes Erben"
  13.     INDEX 00 03:42:20
  14. FILE "01-02 Goethes Erben - Stilleben.wav" WAVE
  15.     INDEX 01 00:00:00
  16.   TRACK 03 AUDIO
  17.     TITLE "Krieg"
  18.     PERFORMER "Goethes Erben"
  19.     INDEX 00 00:45:32
  20. FILE "01-03 Goethes Erben - Krieg.wav" WAVE
  21.     INDEX 01 00:00:00
  22.   TRACK 04 AUDIO
  23.     TITLE "Das Ende 1989"
  24.     PERFORMER "Goethes Erben"
  25.     INDEX 00 05:50:32
  26. FILE "01-04 Goethes Erben - Das Ende 1989.wav" WAVE
  27.     INDEX 01 00:00:00
  28.   TRACK 05 AUDIO
  29.     TITLE "Abseits des Lichtes"
  30.     PERFORMER "Goethes Erben"
  31.     INDEX 00 04:49:40
  32. FILE "01-05 Goethes Erben - Abseits des Lichtes.wav" WAVE
  33.     INDEX 01 00:00:00
RAW Paste Data
We use cookies for various purposes including analytics. By continuing to use Pastebin, you agree to our use of cookies as described in the Cookies Policy. OK, I Understand
 
Top