Guest User

Untitled

a guest
Oct 10th, 2019
122
Never
Not a member of Pastebin yet? Sign Up, it unlocks many cool features!
  1. General
  2. Unique ID : 215849000556488246093732840965348702425 (0xA263015F854AC245AD699A3E2D8AB8D9)
  3. Complete name : Along Came the Devil 2.2019.1080p.WEB-DL.H264.AC3-EVO
  4. Format : Matroska
  5. Format version : Version 4
  6. File size : 3.04 GiB
  7. Duration : 1 h 27 min
  8. Overall bit rate : 4 969 kb/s
  9. Encoded date : UTC 2019-10-10 13:05:42
  10. Writing application : mkvmerge v6.7.0 ('Back to the Ground') 64bit built on Jan 8 2014 15:10:52
  11. Writing library : libebml v1.3.0 + libmatroska v1.4.1
  12.  
  13. Video
  14. ID : 2
  15. Format : AVC
  16. Format/Info : Advanced Video Codec
  17. Format profile : High@L4
  18. Format settings : CABAC / 5 Ref Frames
  19. Format settings, CABAC : Yes
  20. Format settings, Reference frames : 5 frames
  21. Codec ID : V_MPEG4/ISO/AVC
  22. Duration : 1 h 27 min
  23. Bit rate : 4 486 kb/s
  24. Width : 1 920 pixels
  25. Height : 802 pixels
  26. Display aspect ratio : 2.40:1
  27. Frame rate mode : Constant
  28. Frame rate : 23.976 (24000/1001) FPS
  29. Color space : YUV
  30. Chroma subsampling : 4:2:0
  31. Bit depth : 8 bits
  32. Scan type : Progressive
  33. Bits/(Pixel*Frame) : 0.122
  34. Stream size : 2.74 GiB (90%)
  35. Language : English
  36. Default : Yes
  37. Forced : No
  38. Color range : Limited
  39. Color primaries : BT.709
  40. Transfer characteristics : BT.709
  41. Matrix coefficients : BT.709
  42.  
  43. Audio
  44. ID : 1
  45. Format : AC-3
  46. Format/Info : Audio Coding 3
  47. Commercial name : Dolby Digital
  48. Codec ID : A_AC3
  49. Duration : 1 h 27 min
  50. Bit rate mode : Constant
  51. Bit rate : 384 kb/s
  52. Channel(s) : 6 channels
  53. Channel layout : L R C LFE Ls Rs
  54. Sampling rate : 48.0 kHz
  55. Frame rate : 31.250 FPS (1536 SPF)
  56. Bit depth : 16 bits
  57. Compression mode : Lossy
  58. Stream size : 240 MiB (8%)
  59. Language : English
  60. Service kind : Complete Main
  61. Default : Yes
  62. Forced : No
  63.  
  64. Menu
  65. 00:00:00.000 : en:Chapter 1
  66. 00:09:45.585 : en:Chapter 2
  67. 00:20:10.209 : en:Chapter 3
  68. 00:28:10.689 : en:Chapter 4
  69. 00:40:13.411 : en:Chapter 5
  70. 00:49:39.976 : en:Chapter 6
  71. 00:58:14.490 : en:Chapter 7
  72. 01:09:26.161 : en:Chapter 8
  73. 01:19:54.788 : en:Chapter 9
  74. 01:21:18.871 : en:Chapter 10
RAW Paste Data