SHARE
TWEET

The Mustang BluRay 720p

dirtyharrys Jun 5th, 2019 (edited) 77 Never
Not a member of Pastebin yet? Sign Up, it unlocks many cool features!
  1. General
  2. Unique ID                   : 231570000240182718336456369293569945795 (0xAE36C2802F1B1B53D929ABF46BA1F0C3)
  3. Complete name               : E:\QlJSVGhlTXVzdGFuZw.mkv
  4. Format                      : Matroska
  5. Format version              : Version 4
  6. File size                   : 1.62 GiB
  7. Duration                    : 1 h 36 min
  8. Overall bit rate            : 2 405 kb/s
  9. Movie name                  : The Mustang BR-RIP / The Mustang BR-RIP
  10. Encoded date                : UTC 2019-06-14 07:58:08
  11. Writing application         : mkvmerge v30.1.0 ('Forever And More') 32-bit
  12. Writing library             : libebml v1.3.6 + libmatroska v1.4.9
  13. Copyright                   : Movies HDs 2019
  14. ARTIST                      : HarshLearner
  15.  
  16. Video
  17. ID                          : 1
  18. Format                      : AVC
  19. Format/Info                 : Advanced Video Codec
  20. Format profile              : High@L4.1
  21. Format settings             : CABAC / 4 Ref Frames
  22. Format settings, CABAC      : Yes
  23. Format settings, ReFrames   : 4 frames
  24. Codec ID                    : V_MPEG4/ISO/AVC
  25. Duration                    : 1 h 36 min
  26. Bit rate                    : 1 500 kb/s
  27. Width                       : 1 280 pixels
  28. Height                      : 766 pixels
  29. Display aspect ratio        : 5:3
  30. Frame rate mode             : Constant
  31. Frame rate                  : 23.976 (24000/1001) FPS
  32. Original frame rate         : 23.976 (23976/1000) FPS
  33. Color space                 : YUV
  34. Chroma subsampling          : 4:2:0
  35. Bit depth                   : 8 bits
  36. Scan type                   : Progressive
  37. Bits/(Pixel*Frame)          : 0.064
  38. Stream size                 : 1.01 GiB (62%)
  39. Title                       : The Mustang
  40. Writing library             : x264 core 152 r2851M ba24899
  41. Default                     : Yes
  42. Forced                      : No
  43.  
  44. Audio #1
  45. ID                          : 2
  46. Format                      : AC-3
  47. Format/Info                 : Audio Coding 3
  48. Commercial name             : Dolby Digital
  49. Codec ID                    : A_AC3
  50. Duration                    : 1 h 36 min
  51. Bit rate mode               : Constant
  52. Bit rate                    : 448 kb/s
  53. Channel(s)                  : 6 channels
  54. Channel layout              : L R C LFE Ls Rs
  55. Sampling rate               : 48.0 kHz
  56. Frame rate                  : 31.250 FPS (1536 SPF)
  57. Bit depth                   : 16 bits
  58. Compression mode            : Lossy
  59. Stream size                 : 308 MiB (19%)
  60. Language                    : English
  61. Service kind                : Complete Main
  62. Default                     : No
  63. Forced                      : No
  64.  
  65. Audio #2
  66. ID                          : 3
  67. Format                      : AC-3
  68. Format/Info                 : Audio Coding 3
  69. Commercial name             : Dolby Digital
  70. Codec ID                    : A_AC3
  71. Duration                    : 1 h 36 min
  72. Bit rate mode               : Constant
  73. Bit rate                    : 448 kb/s
  74. Channel(s)                  : 6 channels
  75. Channel layout              : L R C LFE Ls Rs
  76. Sampling rate               : 48.0 kHz
  77. Frame rate                  : 31.250 FPS (1536 SPF)
  78. Bit depth                   : 16 bits
  79. Compression mode            : Lossy
  80. Stream size                 : 308 MiB (19%)
  81. Language                    : Spanish
  82. Service kind                : Complete Main
  83. Default                     : Yes
  84. Forced                      : Yes
  85.  
  86. Text #1
  87. ID                          : 4
  88. Format                      : PGS
  89. Muxing mode                 : zlib
  90. Codec ID                    : S_HDMV/PGS
  91. Codec ID/Info               : Picture based subtitle format used on BDs/HD-DVDs
  92. Duration                    : 1 h 35 min
  93. Bit rate                    : 24.9 kb/s
  94. Count of elements           : 1944
  95. Stream size                 : 17.1 MiB (1%)
  96. Language                    : Spanish
  97. Default                     : No
  98. Forced                      : No
  99.  
  100. Text #2
  101. ID                          : 5
  102. Format                      : UTF-8
  103. Codec ID                    : S_TEXT/UTF8
  104. Codec ID/Info               : UTF-8 Plain Text
  105. Duration                    : 1 h 24 min
  106. Bit rate                    : 40 b/s
  107. Count of elements           : 811
  108. Stream size                 : 25.1 KiB (0%)
  109. Language                    : English
  110. Default                     : No
  111. Forced                      : No
  112.  
  113. Text #3
  114. ID                          : 6
  115. Format                      : UTF-8
  116. Codec ID                    : S_TEXT/UTF8
  117. Codec ID/Info               : UTF-8 Plain Text
  118. Duration                    : 1 h 31 min
  119. Bit rate                    : 41 b/s
  120. Count of elements           : 975
  121. Stream size                 : 28.0 KiB (0%)
  122. Language                    : Spanish
  123. Default                     : Yes
  124. Forced                      : Yes
  125.  
  126. Menu
  127. 00:00:00.042                : :1
  128. 00:05:14.481                : :2
  129. 00:09:21.144                : :3
  130. 00:14:53.309                : :4
  131. 00:18:52.924                : :5
  132. 00:24:34.849                : :6
  133. 00:28:42.513                : :7
  134. 00:31:39.314                : :8
  135. 00:36:20.178                : :9
  136. 00:42:50.819                : :10
  137. 00:47:01.235                : :11
  138. 00:51:03.936                : :12
  139. 00:56:36.477                : :13
  140. 01:01:16.215                : :14
  141. 01:06:48.713                : :15
  142. 01:13:45.213                : :16
  143. 01:17:53.169                : :17
  144. 01:23:25.751                : :18
  145. 01:28:38.397                : :19
  146. 01:30:40.602                : :20
RAW Paste Data
We use cookies for various purposes including analytics. By continuing to use Pastebin, you agree to our use of cookies as described in the Cookies Policy. OK, I Understand
 
Top