Guest User

Romanthony - Romanworld (Track Split Cue) Disc 1

a guest
Mar 30th, 2016
347
Never
Not a member of Pastebin yet? Sign Up, it unlocks many cool features!
  1. REM GENRE "Garage House"
  2. REM DATE 1996
  3. PERFORMER "Romanthony"
  4. TITLE "Romanworld (Track Split Cue)"
  5. FILE "1-01 Romanworld , Make This Love Right , Now You Want Blues , Now You Want Me , Let Me Show You Love , Come My Way.flac" WAVE
  6. TRACK 01 AUDIO
  7. PERFORMER "Romanthony"
  8. TITLE "Romanworld"
  9. INDEX 01 00:00:00
  10. TRACK 02 AUDIO
  11. PERFORMER "Romanthony"
  12. TITLE "Make This Love Right"
  13. INDEX 01 10:02:00
  14. TRACK 03 AUDIO
  15. PERFORMER "Romanthony"
  16. TITLE "Now You Want Blues"
  17. INDEX 01 19:44:15
  18. TRACK 04 AUDIO
  19. PERFORMER "Romanthony"
  20. TITLE "Now You Want Me"
  21. INDEX 01 25:42:45
  22. TRACK 05 AUDIO
  23. PERFORMER "Romanthony"
  24. TITLE "Let Me Show You Love"
  25. INDEX 01 32:41:00
  26. TRACK 06 AUDIO
  27. PERFORMER "Romanthony"
  28. TITLE "Come My Way"
  29. INDEX 01 44:15:00
RAW Paste Data