SHARE
TWEET

Untitled

a guest Feb 5th, 2016 64 Never
Not a member of Pastebin yet? Sign Up, it unlocks many cool features!
  1. Microsoft Windows [Version 6.1.7601]
  2. Copyright (c) 2009 Microsoft Corporation.  All rights reserved.
  3.  
  4. C:\Users\Macev>cd..
  5.  
  6. C:\Users>cd..
  7.  
  8. C:\>cd temp
  9.  
  10. C:\TEMP>ffmpeg -i 1.mts -c copy 2.mts
  11. ffmpeg version N-78313-g6632802 Copyright (c) 2000-2016 the FFmpeg developers
  12.   built with gcc 5.3.0 (GCC)
  13.   configuration: --enable-gpl --enable-version3 --disable-w32threads --enable-av
  14. isynth --enable-bzlib --enable-fontconfig --enable-frei0r --enable-gnutls --enab
  15. le-iconv --enable-libass --enable-libbluray --enable-libbs2b --enable-libcaca --
  16. enable-libdcadec --enable-libfreetype --enable-libgme --enable-libgsm --enable-l
  17. ibilbc --enable-libmodplug --enable-libmp3lame --enable-libopencore-amrnb --enab
  18. le-libopencore-amrwb --enable-libopenjpeg --enable-libopus --enable-librtmp --en
  19. able-libschroedinger --enable-libsoxr --enable-libspeex --enable-libtheora --ena
  20. ble-libtwolame --enable-libvidstab --enable-libvo-amrwbenc --enable-libvorbis --
  21. enable-libvpx --enable-libwavpack --enable-libwebp --enable-libx264 --enable-lib
  22. x265 --enable-libxavs --enable-libxvid --enable-libzimg --enable-lzma --enable-d
  23. ecklink --enable-zlib
  24.   libavutil      55. 17.100 / 55. 17.100
  25.   libavcodec     57. 24.101 / 57. 24.101
  26.   libavformat    57. 24.100 / 57. 24.100
  27.   libavdevice    57.  0.101 / 57.  0.101
  28.   libavfilter     6. 28.100 /  6. 28.100
  29.   libswscale      4.  0.100 /  4.  0.100
  30.   libswresample   2.  0.101 /  2.  0.101
  31.   libpostproc    54.  0.100 / 54.  0.100
  32. Input #0, mpegts, from '1.mts':
  33.   Duration: 00:00:42.24, start: 1.020000, bitrate: 28095 kb/s
  34.   Program 1
  35.     Stream #0:0[0x1011]: Video: h264 (High) (HDPR / 0x52504448), yuv420p, 1920x1
  36. 080 [SAR 1:1 DAR 16:9], 50 fps, 50 tbr, 90k tbn, 100 tbc
  37.     Stream #0:1[0x1100]: Audio: pcm_bluray (HDPR / 0x52504448), 48000 Hz, stereo
  38. , s16, 1536 kb/s
  39.     Stream #0:2[0x1200]: Subtitle: hdmv_pgs_subtitle ([144][0][0][0] / 0x0090),
  40. 1920x1080
  41. Output #0, mpegts, to '2.mts':
  42.   Metadata:
  43.     encoder         : Lavf57.24.100
  44.     Stream #0:0: Video: h264 (HDPR / 0x52504448), yuv420p, 1920x1080 [SAR 1:1 DA
  45. R 16:9], q=2-31, 50 fps, 50 tbr, 90k tbn, 90k tbc
  46.     Stream #0:1: Audio: pcm_bluray (HDPR / 0x52504448), 48000 Hz, stereo, 1536 k
  47. b/s
  48. Stream mapping:
  49.   Stream #0:0 -> #0:0 (copy)
  50.   Stream #0:1 -> #0:1 (copy)
  51. Press [q] to stop, [?] for help
  52. frame= 2112 fps=0.0 q=-1.0 Lsize=  147751kB time=00:00:42.24 bitrate=28654.8kbit
  53. s/s speed=91.6x
  54. video:128731kB audio:7953kB subtitle:0kB other streams:0kB global headers:0kB mu
  55. xing overhead: 8.097342%
  56.  
  57. C:\TEMP>
RAW Paste Data
We use cookies for various purposes including analytics. By continuing to use Pastebin, you agree to our use of cookies as described in the Cookies Policy. OK, I Understand
 
Top