Guest User

Journal.64.2018.1080p.BluRay.DD5.1.x264-DON

a guest
May 21st, 2019
35
Never
Not a member of Pastebin yet? Sign Up, it unlocks many cool features!
  1. General
  2. Complete name                            : Journal 64 2018 1080p BluRay DD5.1 x264-DON.mkv
  3. Format                                   : Matroska
  4. Format version                           : Version 4
  5. File size                                : 11.9 GiB
  6. Duration                                 : 1 h 57 min
  7. Overall bit rate                         : 14.5 Mb/s
  8. Encoded date                             : UTC 2019-04-02 21:43:06
  9. Writing application                      : mkvmerge v32.0.0 ('Astral Progressions') 64-bit
  10. Writing library                          : libebml v1.3.7 + libmatroska v1.5.0
  11.  
  12. Video
  13. ID                                       : 1
  14. Format                                   : AVC
  15. Format/Info                              : Advanced Video Codec
  16. Format profile                           : High@L4.1
  17. Format settings                          : CABAC / 5 Ref Frames
  18. Format settings, CABAC                   : Yes
  19. Format settings, Reference frames        : 5 frames
  20. Codec ID                                 : V_MPEG4/ISO/AVC
  21. Duration                                 : 1 h 57 min
  22. Bit rate                                 : 13.4 Mb/s
  23. Width                                    : 1 920 pixels
  24. Height                                   : 804 pixels
  25. Display aspect ratio                     : 2.40:1
  26. Frame rate mode                          : Constant
  27. Frame rate                               : 24.000 FPS
  28. Color space                              : YUV
  29. Chroma subsampling                       : 4:2:0
  30. Bit depth                                : 8 bits
  31. Scan type                                : Progressive
  32. Bits/(Pixel*Frame)                       : 0.361
  33. Stream size                              : 11.0 GiB (92%)
  34. Writing library                          : x264 core 157 r2867+103 0d6443f t_mod_Custom_2 [8-bit@all X86_64]
  35. Encoding settings                        : cabac=1 / ref=5 / deblock=1:-3:-3 / analyse=0x3:0x133 / me=umh / subme=10 / psy=1 / fade_compensate=0.00 / psy_rd=1.00:0.00 / mixed_ref=1 / me_range=32 / chroma_me=1 / trellis=2 / 8x8dct=1 / cqm=0 / deadzone=21,11 / fast_pskip=0 / chroma_qp_offset=-2 / threads=12 / lookahead_threads=2 / sliced_threads=0 / nr=0 / decimate=0 / interlaced=0 / bluray_compat=0 / constrained_intra=0 / fgo=0 / bframes=9 / b_pyramid=2 / b_adapt=2 / b_bias=0 / direct=3 / weightb=1 / open_gop=0 / weightp=2 / keyint=250 / keyint_min=24 / scenecut=40 / intra_refresh=0 / rc=crf / mbtree=0 / crf=16.0000 / qcomp=0.60 / qpmin=0:0:0 / qpmax=69:69:69 / qpstep=4 / ip_ratio=1.40 / pb_ratio=1.30 / aq=3:0.85 / aq-sensitivity=10.00 / aq-factor=1.00:1.00:1.00 / aq2=0 / aq3=0 / zones=1490,1877,crf=14.1/3684,6473,crf=14.2/9006,9955,crf=14.2/10850,11697,crf=14.4/13676,13767,crf=14.1/15184,15407,crf=14.1/20153,22553,crf=13.7/22554,23113,crf=14.4/40013,40324,crf=14.4/40915,42219,crf=14.5/47364,47486,crf=14/72557,75039,crf=14.5/78771,78883,crf=14.1/78884,79343,crf=13.7/107100,108053,crf=14.1/109917,110526,crf=14.2/125973,126778,crf=14.4/128118,128502,crf=14.5/142971,143859,crf=14.3/144513,144765,crf=14.7/145361,146433,crf=14.5/162212,162542,crf=14.1
  36. Language                                 : English
  37. Default                                  : Yes
  38. Forced                                   : No
  39.  
  40. Audio
  41. ID                                       : 2
  42. Format                                   : E-AC-3
  43. Format/Info                              : Enhanced AC-3
  44. Commercial name                          : Dolby Digital Plus
  45. Codec ID                                 : A_EAC3
  46. Duration                                 : 1 h 57 min
  47. Bit rate mode                            : Constant
  48. Bit rate                                 : 1 024 kb/s
  49. Channel(s)                               : 6 channels
  50. Channel layout                           : L R C LFE Ls Rs
  51. Sampling rate                            : 48.0 kHz
  52. Frame rate                               : 31.250 FPS (1536 SPF)
  53. Compression mode                         : Lossy
  54. Stream size                              : 863 MiB (7%)
  55. Language                                 : Danish
  56. Service kind                             : Complete Main
  57. Default                                  : Yes
  58. Forced                                   : No
  59.  
  60. Text #1
  61. ID                                       : 3
  62. Format                                   : UTF-8
  63. Codec ID                                 : S_TEXT/UTF8
  64. Codec ID/Info                            : UTF-8 Plain Text
  65. Duration                                 : 1 h 52 min
  66. Bit rate                                 : 49 b/s
  67. Count of elements                        : 1097
  68. Stream size                              : 40.9 KiB (0%)
  69. Language                                 : English
  70. Default                                  : No
  71. Forced                                   : No
  72.  
  73. Text #2
  74. ID                                       : 4
  75. Format                                   : PGS
  76. Muxing mode                              : zlib
  77. Codec ID                                 : S_HDMV/PGS
  78. Codec ID/Info                            : Picture based subtitle format used on BDs/HD-DVDs
  79. Duration                                 : 1 h 48 min
  80. Bit rate                                 : 413 b/s
  81. Count of elements                        : 30
  82. Stream size                              : 329 KiB (0%)
  83. Language                                 : Danish
  84. Default                                  : Yes
  85. Forced                                   : Yes
  86.  
  87. Text #3
  88. ID                                       : 5
  89. Format                                   : PGS
  90. Muxing mode                              : zlib
  91. Codec ID                                 : S_HDMV/PGS
  92. Codec ID/Info                            : Picture based subtitle format used on BDs/HD-DVDs
  93. Duration                                 : 1 h 56 min
  94. Bit rate                                 : 28.0 kb/s
  95. Count of elements                        : 2020
  96. Stream size                              : 23.4 MiB (0%)
  97. Title                                    : SDH
  98. Language                                 : Danish
  99. Default                                  : No
  100. Forced                                   : No
  101.  
  102. Text #4
  103. ID                                       : 6
  104. Format                                   : PGS
  105. Muxing mode                              : zlib
  106. Codec ID                                 : S_HDMV/PGS
  107. Codec ID/Info                            : Picture based subtitle format used on BDs/HD-DVDs
  108. Duration                                 : 1 h 57 min
  109. Bit rate                                 : 28.5 kb/s
  110. Count of elements                        : 2010
  111. Stream size                              : 23.9 MiB (0%)
  112. Language                                 : Finnish
  113. Default                                  : No
  114. Forced                                   : No
  115.  
  116. Text #5
  117. ID                                       : 7
  118. Format                                   : PGS
  119. Muxing mode                              : zlib
  120. Codec ID                                 : S_HDMV/PGS
  121. Codec ID/Info                            : Picture based subtitle format used on BDs/HD-DVDs
  122. Duration                                 : 1 h 57 min
  123. Bit rate                                 : 26.5 kb/s
  124. Count of elements                        : 2006
  125. Stream size                              : 22.2 MiB (0%)
  126. Language                                 : Norwegian
  127. Default                                  : No
  128. Forced                                   : No
  129.  
  130. Text #6
  131. ID                                       : 8
  132. Format                                   : UTF-8
  133. Codec ID                                 : S_TEXT/UTF8
  134. Codec ID/Info                            : UTF-8 Plain Text
  135. Duration                                 : 1 h 52 min
  136. Bit rate                                 : 53 b/s
  137. Count of elements                        : 1109
  138. Stream size                              : 44.2 KiB (0%)
  139. Language                                 : Romanian
  140. Default                                  : No
  141. Forced                                   : No
  142.  
  143. Text #7
  144. ID                                       : 9
  145. Format                                   : PGS
  146. Muxing mode                              : zlib
  147. Codec ID                                 : S_HDMV/PGS
  148. Codec ID/Info                            : Picture based subtitle format used on BDs/HD-DVDs
  149. Duration                                 : 1 h 56 min
  150. Bit rate                                 : 27.4 kb/s
  151. Count of elements                        : 2008
  152. Stream size                              : 22.9 MiB (0%)
  153. Language                                 : Swedish
  154. Default                                  : No
  155. Forced                                   : No
  156.  
  157. Menu
  158. 00:00:00.000                             : :Chapter 1
  159. 00:09:59.542                             : :Chapter 2
  160. 00:19:59.583                             : :Chapter 3
  161. 00:29:59.708                             : :Chapter 4
  162. 00:39:59.750                             : :Chapter 5
  163. 00:49:59.583                             : :Chapter 6
  164. 00:59:59.958                             : :Chapter 7
  165. 01:09:59.833                             : :Chapter 8
  166. 01:19:59.583                             : :Chapter 9
  167. 01:29:59.667                             : :Chapter 10
  168. 01:39:59.542                             : :Chapter 11
  169. 01:49:59.625                             : :Chapter 12
RAW Paste Data