SHARE
TWEET

Untitled

a guest Feb 4th, 2019 66 Never
Not a member of Pastebin yet? Sign Up, it unlocks many cool features!
  1. C:\Windows\system32>ffmpeg -f dshow -video_size 1280x720 -framerate 30 -rtbufsize 700200k -i video="Logitech HD Pro Webcam C920" -r 30000/1001 -f dshow -channels 1 -i audio="Microphone (USB PnP Audio Device)" -f dshow -channels 1 -i audio="Microphone (3- USB PnP Audio Device)" -b:a 192k -ar 48000 -filter_complex "[1][2]amerge=inputs=2[a]" -map 0:v -flags +global_header -profile:v main -pix_fmt yuv420p -c:v libx264 -map "[a]" -c:a aac -ar 48000 -ac 2 -f tee "c:/users/richard.mizell/test.mkv | c:/users/richard.mizell/test2.mkv | [f=mpegts]udp://localhost:4000" -filter_complex "[1:a]astats=metadata=1:reset=1,ametadata@pnp=print:key=lavfi.astats.1.RMS_level[1a];[2:a]astats=metadata=1:reset=1,ametadata@pnpthree=print:key=lavfi.astats.1.RMS_level[2a];[1a][2a]amerge=inputs=2[aout]" -map "[aout]" -acodec flac -f tee "c:/users/richard.mizell/test.flac | c:/users/richard.mizell/test2.flac"
  2. ffmpeg version 4.1 Copyright (c) 2000-2018 the FFmpeg developers
  3.   built with gcc 8.2.1 (GCC) 20181017
  4.   configuration: --enable-gpl --enable-version3 --enable-sdl2 --enable-fontconfig --enable-gnutls --enable-iconv --enable-libass --enable-libbluray --enable-libfreetype --enable-libmp3lame --enable-libopencore-amrnb --enable-libopencore-amrwb --enable-libopenjpeg --enable-libopus --enable-libshine --enable-libsnappy --enable-libsoxr --enable-libtheora --enable-libtwolame --enable-libvpx --enable-libwavpack --enable-libwebp --enable-libx264 --enable-libx265 --enable-libxml2 --enable-libzimg --enable-lzma --enable-zlib --enable-gmp --enable-libvidstab --enable-libvorbis --enable-libvo-amrwbenc --enable-libmysofa --enable-libspeex --enable-libxvid --enable-libaom --enable-libmfx --enable-amf --enable-ffnvcodec --enable-cuvid --enable-d3d11va --enable-nvenc --enable-nvdec --enable-dxva2 --enable-avisynth
  5.   libavutil      56. 22.100 / 56. 22.100
  6.   libavcodec     58. 35.100 / 58. 35.100
  7.   libavformat    58. 20.100 / 58. 20.100
  8.   libavdevice    58.  5.100 / 58.  5.100
  9.   libavfilter     7. 40.101 /  7. 40.101
  10.   libswscale      5.  3.100 /  5.  3.100
  11.   libswresample   3.  3.100 /  3.  3.100
  12.   libpostproc    55.  3.100 / 55.  3.100
  13. Input #0, dshow, from 'video=Logitech HD Pro Webcam C920':
  14.   Duration: N/A, start: 20163.810000, bitrate: N/A
  15.     Stream #0:0: Video: rawvideo, bgr24, 1280x720, 30 fps, 30 tbr, 10000k tbn, 10000k tbc
  16. Guessed Channel Layout for Input Stream #1.0 : mono
  17. Input #1, dshow, from 'audio=Microphone (USB PnP Audio Device)':
  18.   Duration: N/A, start: 20164.010000, bitrate: 705 kb/s
  19.     Stream #1:0: Audio: pcm_s16le, 44100 Hz, mono, s16, 705 kb/s
  20. Guessed Channel Layout for Input Stream #2.0 : mono
  21. Input #2, dshow, from 'audio=Microphone (3- USB PnP Audio Device)':
  22.   Duration: N/A, start: 20164.660000, bitrate: 705 kb/s
  23.     Stream #2:0: Audio: pcm_s16le, 44100 Hz, mono, s16, 705 kb/s
  24. Stream mapping:
  25.   Stream #1:0 (pcm_s16le) -> amerge:in0 (graph 0)
  26.   Stream #1:0 (pcm_s16le) -> astats (graph 1)
  27.   Stream #2:0 (pcm_s16le) -> amerge:in1 (graph 0)
  28.   Stream #2:0 (pcm_s16le) -> astats (graph 1)
  29.   Stream #0:0 -> #0:0 (rawvideo (native) -> h264 (libx264))
  30.   amerge (graph 0) -> Stream #0:1 (aac)
  31.   amerge (graph 1) -> Stream #1:0 (flac)
  32. Press [q] to stop, [?] for help
  33. [libx264 @ 000001f1e83ccb40] using cpu capabilities: MMX2 SSE2Fast SSSE3 SSE4.2 AVX
  34. [libx264 @ 000001f1e83ccb40] profile Main, level 3.1, 4:2:0, 8-bit
  35. [libx264 @ 000001f1e83ccb40] 264 - core 157 r2935 545de2f - H.264/MPEG-4 AVC codec - Copyleft 2003-2018 - http://www.videolan.org/x264.html - options: cabac=1 ref=3 deblock=1:0:0 analyse=0x1:0x111 me=hex subme=7 psy=1 psy_rd=1.00:0.00 mixed_ref=1 me_range=16 chroma_me=1 trellis=1 8x8dct=0 cqm=0 deadzone=21,11 fast_pskip=1 chroma_qp_offset=-2 threads=12 lookahead_threads=2 sliced_threads=0 nr=0 decimate=1 interlaced=0 bluray_compat=0 constrained_intra=0 bframes=3 b_pyramid=2 b_adapt=1 b_bias=0 direct=1 weightb=1 open_gop=0 weightp=2 keyint=250 keyint_min=25 scenecut=40 intra_refresh=0 rc_lookahead=40 rc=crf mbtree=1 crf=23.0 qcomp=0.60 qpmin=0 qpmax=69 qpstep=4 ip_ratio=1.40 aq=1:1.00
  36. [Parsed_amerge_0 @ 000001f1e83e7540] No channel layout for input 1
  37. [Parsed_amerge_0 @ 000001f1e83e7540] Input channel layouts overlap: output layout will be determined by the number of distinct input channels
  38. Output #0, tee, to 'c:/users/richard.mizell/test.mkv | c:/users/richard.mizell/test2.mkv | [f=mpegts]udp://localhost:4000':
  39.   Metadata:
  40.     encoder         : Lavf58.20.100
  41.     Stream #0:0: Video: h264 (libx264), yuv420p(progressive), 1280x720, q=-1--1, 30 fps, 30 tbn, 30 tbc
  42.     Metadata:
  43.       encoder         : Lavc58.35.100 libx264
  44.     Side data:
  45.       cpb: bitrate max/min/avg: 0/0/0 buffer size: 0 vbv_delay: -1
  46.     Stream #0:1: Audio: aac (LC), 48000 Hz, stereo, fltp, 192 kb/s (default)
  47.     Metadata:
  48.       encoder         : Lavc58.35.100 aac
  49. [Parsed_amerge_4 @ 000001f1e83e6040] No channel layout for input 1
  50. [Parsed_amerge_4 @ 000001f1e83e6040] Input channel layouts overlap: output layout will be determined by the number of distinct input channels
  51. [ametadata@pnp @ 000001f1e83e6e40] frame:0    pts:0       pts_time:0
  52. [ametadata@pnp @ 000001f1e83e6e40] lavfi.astats.1.RMS_level=-47.920508
  53. [ametadata@pnpthree @ 000001f1e83e6640] frame:0    pts:0       pts_time:0
  54. [ametadata@pnpthree @ 000001f1e83e6640] lavfi.astats.1.RMS_level=-34.031778
  55. Output #1, tee, to 'c:/users/richard.mizell/test.flac | c:/users/richard.mizell/test2.flac':
  56.   Metadata:
  57.     encoder         : Lavf58.20.100
  58.     Stream #1:0: Audio: flac, 44100 Hz, stereo, s16, 128 kb/s (default)
  59.     Metadata:
  60.       encoder         : Lavc58.35.100 flac
  61. [dshow @ 000001f1e832e280] Thread message queue blocking; consider raising the thread_queue_size option (current value: 8)
  62. [ametadata@pnp @ 000001f1e83e6e40] frame:1    pts:22667   pts_time:0.5139914x
  63. [ametadata@pnp @ 000001f1e83e6e40] lavfi.astats.1.RMS_level=-50.059813
  64. [ametadata@pnpthree @ 000001f1e83e6640] frame:1    pts:22667   pts_time:0.513991
  65. [ametadata@pnpthree @ 000001f1e83e6640] lavfi.astats.1.RMS_level=-35.513222
  66. [ametadata@pnp @ 000001f1e83e6e40] frame:2    pts:44717   pts_time:1.0139948x
  67. [ametadata@pnp @ 000001f1e83e6e40] lavfi.astats.1.RMS_level=-48.093669
  68. [ametadata@pnpthree @ 000001f1e83e6640] frame:2    pts:44762   pts_time:1.01501
  69. [ametadata@pnpthree @ 000001f1e83e6640] lavfi.astats.1.RMS_level=-34.312201
  70. [ametadata@pnp @ 000001f1e83e6e40] frame:3    pts:66767   pts_time:1.5139978x
  71. [ametadata@pnp @ 000001f1e83e6e40] lavfi.astats.1.RMS_level=-49.841338
  72. [ametadata@pnpthree @ 000001f1e83e6640] frame:3    pts:66812   pts_time:1.51501
  73. [ametadata@pnpthree @ 000001f1e83e6640] lavfi.astats.1.RMS_level=-36.958689
  74. [ametadata@pnp @ 000001f1e83e6e40] frame:4    pts:88817   pts_time:2.0139991x
  75. [ametadata@pnp @ 000001f1e83e6e40] lavfi.astats.1.RMS_level=-50.399015
  76. [ametadata@pnpthree @ 000001f1e83e6640] frame:4    pts:88862   pts_time:2.01501
  77. [ametadata@pnpthree @ 000001f1e83e6640] lavfi.astats.1.RMS_level=-37.688720
  78. [ametadata@pnp @ 000001f1e83e6e40] frame:5    pts:110867  pts_time:2.5139978x
  79. [ametadata@pnp @ 000001f1e83e6e40] lavfi.astats.1.RMS_level=-52.137274
  80. [ametadata@pnpthree @ 000001f1e83e6640] frame:5    pts:110912  pts_time:2.51501
  81. [ametadata@pnpthree @ 000001f1e83e6640] lavfi.astats.1.RMS_level=-37.604030
  82. [ametadata@pnp @ 000001f1e83e6e40] frame:6    pts:132917  pts_time:3.0139977x
  83. [ametadata@pnp @ 000001f1e83e6e40] lavfi.astats.1.RMS_level=-52.884311
  84. [ametadata@pnpthree @ 000001f1e83e6640] frame:6    pts:132962  pts_time:3.01501
  85. [ametadata@pnpthree @ 000001f1e83e6640] lavfi.astats.1.RMS_level=-35.864153
  86. [ametadata@pnp @ 000001f1e83e6e40] frame:7    pts:154967  pts_time:3.5139982x
  87. [ametadata@pnp @ 000001f1e83e6e40] lavfi.astats.1.RMS_level=-51.070439
  88. [ametadata@pnpthree @ 000001f1e83e6640] frame:7    pts:155012  pts_time:3.51501
  89. [ametadata@pnpthree @ 000001f1e83e6640] lavfi.astats.1.RMS_level=-35.113663
  90. [ametadata@pnp @ 000001f1e83e6e40] frame:8    pts:177017  pts_time:4.0139988x
  91. [ametadata@pnp @ 000001f1e83e6e40] lavfi.astats.1.RMS_level=-47.978969
  92. [ametadata@pnpthree @ 000001f1e83e6640] frame:8    pts:177017  pts_time:4.01399
  93. [ametadata@pnpthree @ 000001f1e83e6640] lavfi.astats.1.RMS_level=-34.641142
  94. [ametadata@pnp @ 000001f1e83e6e40] frame:9    pts:199067  pts_time:4.5139994x
  95. [ametadata@pnp @ 000001f1e83e6e40] lavfi.astats.1.RMS_level=-50.233579
  96. [ametadata@pnpthree @ 000001f1e83e6640] frame:9    pts:199156  pts_time:4.51601
  97. [ametadata@pnpthree @ 000001f1e83e6640] lavfi.astats.1.RMS_level=-32.213704
  98. [ametadata@pnp @ 000001f1e83e6e40] frame:10   pts:221117  pts_time:5.0139985x
  99. [ametadata@pnp @ 000001f1e83e6e40] lavfi.astats.1.RMS_level=-47.514658
  100. [ametadata@pnpthree @ 000001f1e83e6640] frame:10   pts:221162  pts_time:5.01501
  101. [ametadata@pnpthree @ 000001f1e83e6640] lavfi.astats.1.RMS_level=-35.492127
  102. [ametadata@pnp @ 000001f1e83e6e40] frame:11   pts:243167  pts_time:5.5139984x
  103. [ametadata@pnp @ 000001f1e83e6e40] lavfi.astats.1.RMS_level=-47.449357
  104. [ametadata@pnpthree @ 000001f1e83e6640] frame:11   pts:243167  pts_time:5.51399
  105. [ametadata@pnpthree @ 000001f1e83e6640] lavfi.astats.1.RMS_level=-16.640090
  106. [ametadata@pnp @ 000001f1e83e6e40] frame:12   pts:265217  pts_time:6.0139986x
  107. [ametadata@pnp @ 000001f1e83e6e40] lavfi.astats.1.RMS_level=-48.255643
  108. [ametadata@pnpthree @ 000001f1e83e6640] frame:12   pts:265262  pts_time:6.01501
  109. [ametadata@pnpthree @ 000001f1e83e6640] lavfi.astats.1.RMS_level=-18.244462
  110. [ametadata@pnp @ 000001f1e83e6e40] frame:13   pts:287267  pts_time:6.513999x
  111. [ametadata@pnp @ 000001f1e83e6e40] lavfi.astats.1.RMS_level=-46.998246
  112. [ametadata@pnpthree @ 000001f1e83e6640] frame:13   pts:287312  pts_time:6.51501
  113. [ametadata@pnpthree @ 000001f1e83e6640] lavfi.astats.1.RMS_level=-18.099982
  114. [ametadata@pnp @ 000001f1e83e6e40] frame:14   pts:309317  pts_time:7.0139987x
  115. [ametadata@pnp @ 000001f1e83e6e40] lavfi.astats.1.RMS_level=-45.756378
  116. [ametadata@pnpthree @ 000001f1e83e6640] frame:14   pts:309362  pts_time:7.01501
  117. [ametadata@pnpthree @ 000001f1e83e6640] lavfi.astats.1.RMS_level=-21.332791
  118. [ametadata@pnp @ 000001f1e83e6e40] frame:15   pts:331367  pts_time:7.5139986x
  119. [ametadata@pnp @ 000001f1e83e6e40] lavfi.astats.1.RMS_level=-47.345797
  120. [ametadata@pnpthree @ 000001f1e83e6640] frame:15   pts:331367  pts_time:7.51399
  121. [ametadata@pnpthree @ 000001f1e83e6640] lavfi.astats.1.RMS_level=-35.110639
  122. [ametadata@pnp @ 000001f1e83e6e40] frame:16   pts:353417  pts_time:8.0139985x
  123. [ametadata@pnp @ 000001f1e83e6e40] lavfi.astats.1.RMS_level=-50.086293
  124. [ametadata@pnpthree @ 000001f1e83e6640] frame:16   pts:353462  pts_time:8.01501
  125. [ametadata@pnpthree @ 000001f1e83e6640] lavfi.astats.1.RMS_level=-36.967821
  126. [ametadata@pnp @ 000001f1e83e6e40] frame:17   pts:375467  pts_time:8.5139988x
  127. [ametadata@pnp @ 000001f1e83e6e40] lavfi.astats.1.RMS_level=-50.787290
  128. [ametadata@pnpthree @ 000001f1e83e6640] frame:17   pts:375467  pts_time:8.51399
  129. [ametadata@pnpthree @ 000001f1e83e6640] lavfi.astats.1.RMS_level=-35.866174
  130. [ametadata@pnp @ 000001f1e83e6e40] frame:18   pts:397517  pts_time:9.0139991x
  131. [ametadata@pnp @ 000001f1e83e6e40] lavfi.astats.1.RMS_level=-51.000279
  132. [ametadata@pnpthree @ 000001f1e83e6640] frame:18   pts:397562  pts_time:9.01501
  133. [ametadata@pnpthree @ 000001f1e83e6640] lavfi.astats.1.RMS_level=-33.746274
  134. [ametadata@pnp @ 000001f1e83e6e40] frame:19   pts:419567  pts_time:9.5139987x
  135. [ametadata@pnp @ 000001f1e83e6e40] lavfi.astats.1.RMS_level=-28.175320
  136. [ametadata@pnpthree @ 000001f1e83e6640] frame:19   pts:419612  pts_time:9.51501
  137. [ametadata@pnpthree @ 000001f1e83e6640] lavfi.astats.1.RMS_level=-34.808606
  138. [ametadata@pnp @ 000001f1e83e6e40] frame:20   pts:441882  pts_time:10.02.986x
  139. [ametadata@pnp @ 000001f1e83e6e40] lavfi.astats.1.RMS_level=-27.648110
  140. [ametadata@pnpthree @ 000001f1e83e6640] frame:20   pts:441662  pts_time:10.015
  141. [ametadata@pnpthree @ 000001f1e83e6640] lavfi.astats.1.RMS_level=-35.018295
  142. [ametadata@pnp @ 000001f1e83e6e40] frame:21   pts:463667  pts_time:10.514988x
  143. [ametadata@pnp @ 000001f1e83e6e40] lavfi.astats.1.RMS_level=-25.660579
  144. [ametadata@pnpthree @ 000001f1e83e6640] frame:21   pts:463667  pts_time:10.514
  145. [ametadata@pnpthree @ 000001f1e83e6640] lavfi.astats.1.RMS_level=-34.834652
  146. [ametadata@pnp @ 000001f1e83e6e40] frame:22   pts:486158  pts_time:11.024989x
  147. [ametadata@pnp @ 000001f1e83e6e40] lavfi.astats.1.RMS_level=-25.927461
  148. [ametadata@pnpthree @ 000001f1e83e6640] frame:22   pts:485762  pts_time:11.015
  149. [ametadata@pnpthree @ 000001f1e83e6640] lavfi.astats.1.RMS_level=-35.710044
  150. [ametadata@pnp @ 000001f1e83e6e40] frame:23   pts:507767  pts_time:11.514992x
  151. [ametadata@pnp @ 000001f1e83e6e40] lavfi.astats.1.RMS_level=-24.800339
  152. [ametadata@pnpthree @ 000001f1e83e6640] frame:23   pts:507767  pts_time:11.514
  153. [ametadata@pnpthree @ 000001f1e83e6640] lavfi.astats.1.RMS_level=-33.901306
  154. [ametadata@pnp @ 000001f1e83e6e40] frame:24   pts:529817  pts_time:12.014988x
  155. [ametadata@pnp @ 000001f1e83e6e40] lavfi.astats.1.RMS_level=-23.691965
  156. [ametadata@pnpthree @ 000001f1e83e6640] frame:24   pts:529862  pts_time:12.015
  157. [ametadata@pnpthree @ 000001f1e83e6640] lavfi.astats.1.RMS_level=-34.359382
  158. [ametadata@pnp @ 000001f1e83e6e40] frame:25   pts:551867  pts_time:12.514987x
  159. [ametadata@pnp @ 000001f1e83e6e40] lavfi.astats.1.RMS_level=-25.777077
  160. [ametadata@pnpthree @ 000001f1e83e6640] frame:25   pts:551867  pts_time:12.514
  161. [ametadata@pnpthree @ 000001f1e83e6640] lavfi.astats.1.RMS_level=-37.899006
  162. [ametadata@pnp @ 000001f1e83e6e40] frame:26   pts:573873  pts_time:13.013989x
  163. [ametadata@pnp @ 000001f1e83e6e40] lavfi.astats.1.RMS_level=-51.846331
  164. [ametadata@pnpthree @ 000001f1e83e6640] frame:26   pts:573962  pts_time:13.015
  165. [ametadata@pnpthree @ 000001f1e83e6640] lavfi.astats.1.RMS_level=-36.306093
  166. [ametadata@pnp @ 000001f1e83e6e40] frame:27   pts:596012  pts_time:13.515991x
  167. [ametadata@pnp @ 000001f1e83e6e40] lavfi.astats.1.RMS_level=-50.790417
  168. [ametadata@pnpthree @ 000001f1e83e6640] frame:27   pts:596012  pts_time:13.515
  169. [ametadata@pnpthree @ 000001f1e83e6640] lavfi.astats.1.RMS_level=-37.891828
  170. [ametadata@pnp @ 000001f1e83e6e40] frame:28   pts:618017  pts_time:14.014989x
  171. [ametadata@pnp @ 000001f1e83e6e40] lavfi.astats.1.RMS_level=-52.172332
  172. [ametadata@pnpthree @ 000001f1e83e6640] frame:28   pts:618062  pts_time:14.015
  173. [ametadata@pnpthree @ 000001f1e83e6640] lavfi.astats.1.RMS_level=-37.772528
  174. [ametadata@pnp @ 000001f1e83e6e40] frame:29   pts:640067  pts_time:14.514988x
  175. [ametadata@pnp @ 000001f1e83e6e40] lavfi.astats.1.RMS_level=-52.845728
  176. [ametadata@pnpthree @ 000001f1e83e6640] frame:29   pts:640067  pts_time:14.514
  177. [ametadata@pnpthree @ 000001f1e83e6640] lavfi.astats.1.RMS_level=-36.286209
  178. [ametadata@pnp @ 000001f1e83e6e40] frame:30   pts:662117  pts_time:15.014989x
  179. [ametadata@pnp @ 000001f1e83e6e40] lavfi.astats.1.RMS_level=-51.002931
  180. [ametadata@pnpthree @ 000001f1e83e6640] frame:30   pts:662162  pts_time:15.015
  181. [ametadata@pnpthree @ 000001f1e83e6640] lavfi.astats.1.RMS_level=-35.210206
  182. [ametadata@pnp @ 000001f1e83e6e40] frame:31   pts:684167  pts_time:15.514989x
  183. [ametadata@pnp @ 000001f1e83e6e40] lavfi.astats.1.RMS_level=-49.695950
  184. [ametadata@pnpthree @ 000001f1e83e6640] frame:31   pts:684167  pts_time:15.514
  185. [ametadata@pnpthree @ 000001f1e83e6640] lavfi.astats.1.RMS_level=-33.486182
  186. [ametadata@pnp @ 000001f1e83e6e40] frame:32   pts:706173  pts_time:16.013991x
  187. [ametadata@pnp @ 000001f1e83e6e40] lavfi.astats.1.RMS_level=-47.634748
  188. [ametadata@pnpthree @ 000001f1e83e6640] frame:32   pts:706262  pts_time:16.015
  189. [ametadata@pnpthree @ 000001f1e83e6640] lavfi.astats.1.RMS_level=-34.742087
  190. [ametadata@pnp @ 000001f1e83e6e40] frame:33   pts:728312  pts_time:16.515989x
  191. [ametadata@pnp @ 000001f1e83e6e40] lavfi.astats.1.RMS_level=-23.484704
  192. [ametadata@pnpthree @ 000001f1e83e6640] frame:33   pts:728267  pts_time:16.514
  193. [ametadata@pnpthree @ 000001f1e83e6640] lavfi.astats.1.RMS_level=-35.575527
  194. [ametadata@pnp @ 000001f1e83e6e40] frame:34   pts:750317  pts_time:17.014988x
  195. [ametadata@pnp @ 000001f1e83e6e40] lavfi.astats.1.RMS_level=-24.328959
  196. [ametadata@pnpthree @ 000001f1e83e6640] frame:34   pts:750362  pts_time:17.015
  197. [ametadata@pnpthree @ 000001f1e83e6640] lavfi.astats.1.RMS_level=-34.400515
  198. [ametadata@pnp @ 000001f1e83e6e40] frame:35   pts:772367  pts_time:17.514988x
  199. [ametadata@pnp @ 000001f1e83e6e40] lavfi.astats.1.RMS_level=-23.904294
  200. [ametadata@pnpthree @ 000001f1e83e6640] frame:35   pts:772367  pts_time:17.514
  201. [ametadata@pnpthree @ 000001f1e83e6640] lavfi.astats.1.RMS_level=-33.828124
  202. [ametadata@pnp @ 000001f1e83e6e40] frame:36   pts:794417  pts_time:18.014989x
  203. [ametadata@pnp @ 000001f1e83e6e40] lavfi.astats.1.RMS_level=-25.217253
  204. [ametadata@pnpthree @ 000001f1e83e6640] frame:36   pts:794462  pts_time:18.015
  205. [ametadata@pnpthree @ 000001f1e83e6640] lavfi.astats.1.RMS_level=-35.414298
  206. [ametadata@pnp @ 000001f1e83e6e40] frame:37   pts:816467  pts_time:18.51499x
  207. [ametadata@pnp @ 000001f1e83e6e40] lavfi.astats.1.RMS_level=-28.546272
  208. [ametadata@pnpthree @ 000001f1e83e6640] frame:37   pts:816512  pts_time:18.515
  209. [ametadata@pnpthree @ 000001f1e83e6640] lavfi.astats.1.RMS_level=-36.846768
  210. [ametadata@pnp @ 000001f1e83e6e40] frame:38   pts:838517  pts_time:19.014987x
  211. [ametadata@pnp @ 000001f1e83e6e40] lavfi.astats.1.RMS_level=-50.668951
  212. [ametadata@pnpthree @ 000001f1e83e6640] frame:38   pts:838562  pts_time:19.015
  213. [ametadata@pnpthree @ 000001f1e83e6640] lavfi.astats.1.RMS_level=-38.181646
  214. [ametadata@pnp @ 000001f1e83e6e40] frame:39   pts:860567  pts_time:19.514988x
  215. [ametadata@pnp @ 000001f1e83e6e40] lavfi.astats.1.RMS_level=-52.401116
  216. [ametadata@pnpthree @ 000001f1e83e6640] frame:39   pts:860612  pts_time:19.515
  217. [ametadata@pnpthree @ 000001f1e83e6640] lavfi.astats.1.RMS_level=-35.434987
  218. [ametadata@pnp @ 000001f1e83e6e40] frame:40   pts:882573  pts_time:20.013988x
  219. [ametadata@pnp @ 000001f1e83e6e40] lavfi.astats.1.RMS_level=-49.391995
  220. [ametadata@pnpthree @ 000001f1e83e6640] frame:40   pts:882662  pts_time:20.015
  221. [ametadata@pnpthree @ 000001f1e83e6640] lavfi.astats.1.RMS_level=-38.481921
  222. [ametadata@pnp @ 000001f1e83e6e40] frame:41   pts:904667  pts_time:20.514989x
  223. [ametadata@pnp @ 000001f1e83e6e40] lavfi.astats.1.RMS_level=-52.604865
  224. [ametadata@pnpthree @ 000001f1e83e6640] frame:41   pts:904667  pts_time:20.514
  225. [ametadata@pnpthree @ 000001f1e83e6640] lavfi.astats.1.RMS_level=-38.925020
  226. [ametadata@pnp @ 000001f1e83e6e40] frame:42   pts:926673  pts_time:21.013988x
  227. [ametadata@pnp @ 000001f1e83e6e40] lavfi.astats.1.RMS_level=-54.042757
  228. [ametadata@pnpthree @ 000001f1e83e6640] frame:42   pts:926762  pts_time:21.015
  229. [ametadata@pnpthree @ 000001f1e83e6640] lavfi.astats.1.RMS_level=-37.674841
  230. [ametadata@pnp @ 000001f1e83e6e40] frame:43   pts:948767  pts_time:21.514987x
  231. [ametadata@pnp @ 000001f1e83e6e40] lavfi.astats.1.RMS_level=-51.213549
  232. [ametadata@pnpthree @ 000001f1e83e6640] frame:43   pts:948812  pts_time:21.515
  233. [ametadata@pnpthree @ 000001f1e83e6640] lavfi.astats.1.RMS_level=-34.582709
  234. [ametadata@pnp @ 000001f1e83e6e40] frame:44   pts:970817  pts_time:22.014988x
  235. [ametadata@pnp @ 000001f1e83e6e40] lavfi.astats.1.RMS_level=-48.174984
  236. [ametadata@pnpthree @ 000001f1e83e6640] frame:44   pts:970862  pts_time:22.015
  237. [ametadata@pnpthree @ 000001f1e83e6640] lavfi.astats.1.RMS_level=-37.704497
  238. [ametadata@pnp @ 000001f1e83e6e40] frame:45   pts:992867  pts_time:22.514989x
  239. [ametadata@pnp @ 000001f1e83e6e40] lavfi.astats.1.RMS_level=-49.871965
  240. [ametadata@pnpthree @ 000001f1e83e6640] frame:45   pts:992912  pts_time:22.515
  241. [ametadata@pnpthree @ 000001f1e83e6640] lavfi.astats.1.RMS_level=-34.633796
  242. [ametadata@pnp @ 000001f1e83e6e40] frame:46   pts:1014917 pts_time:23.01499x
  243. [ametadata@pnp @ 000001f1e83e6e40] lavfi.astats.1.RMS_level=-48.681064
  244. [ametadata@pnpthree @ 000001f1e83e6640] frame:46   pts:1014962 pts_time:23.015
  245. [ametadata@pnpthree @ 000001f1e83e6640] lavfi.astats.1.RMS_level=-35.368587
  246. [ametadata@pnp @ 000001f1e83e6e40] frame:47   pts:1036967 pts_time:23.514988x
  247. [ametadata@pnp @ 000001f1e83e6e40] lavfi.astats.1.RMS_level=-47.950403
  248. [ametadata@pnpthree @ 000001f1e83e6640] frame:47   pts:1036967 pts_time:23.514
  249. [ametadata@pnpthree @ 000001f1e83e6640] lavfi.astats.1.RMS_level=-37.230546
  250. [ametadata@pnp @ 000001f1e83e6e40] frame:48   pts:1059017 pts_time:24.014988x
  251. [ametadata@pnp @ 000001f1e83e6e40] lavfi.astats.1.RMS_level=-50.360419
  252. [ametadata@pnpthree @ 000001f1e83e6640] frame:48   pts:1059062 pts_time:24.015
  253. [ametadata@pnpthree @ 000001f1e83e6640] lavfi.astats.1.RMS_level=-36.432613
  254. [ametadata@pnp @ 000001f1e83e6e40] frame:49   pts:1081067 pts_time:24.514988x
  255. [ametadata@pnp @ 000001f1e83e6e40] lavfi.astats.1.RMS_level=-50.809846
  256. [ametadata@pnpthree @ 000001f1e83e6640] frame:49   pts:1081067 pts_time:24.514
  257. [ametadata@pnpthree @ 000001f1e83e6640] lavfi.astats.1.RMS_level=-28.333004
  258. [ametadata@pnp @ 000001f1e83e6e40] frame:50   pts:1103073 pts_time:25.01399x
  259. [ametadata@pnp @ 000001f1e83e6e40] lavfi.astats.1.RMS_level=-40.396091
  260. [ametadata@pnpthree @ 000001f1e83e6640] frame:50   pts:1103117 pts_time:25.014
  261. [ametadata@pnpthree @ 000001f1e83e6640] lavfi.astats.1.RMS_level=-27.197358
  262. [ametadata@pnp @ 000001f1e83e6e40] frame:51   pts:1125167 pts_time:25.514991x
  263. [ametadata@pnp @ 000001f1e83e6e40] lavfi.astats.1.RMS_level=-42.554916
  264. [ametadata@pnpthree @ 000001f1e83e6640] frame:51   pts:1125212 pts_time:25.515
  265. [ametadata@pnpthree @ 000001f1e83e6640] lavfi.astats.1.RMS_level=-30.694369
  266. [ametadata@pnp @ 000001f1e83e6e40] frame:52   pts:1147173 pts_time:26.013988x
  267. [ametadata@pnp @ 000001f1e83e6e40] lavfi.astats.1.RMS_level=-41.202194
  268. [ametadata@pnpthree @ 000001f1e83e6640] frame:52   pts:1147262 pts_time:26.015
  269. [ametadata@pnpthree @ 000001f1e83e6640] lavfi.astats.1.RMS_level=-34.041300
  270. [ametadata@pnp @ 000001f1e83e6e40] frame:53   pts:1169312 pts_time:26.515988x
  271. [ametadata@pnp @ 000001f1e83e6e40] lavfi.astats.1.RMS_level=-45.996035
  272. [ametadata@pnpthree @ 000001f1e83e6640] frame:53   pts:1169312 pts_time:26.515
  273. [ametadata@pnpthree @ 000001f1e83e6640] lavfi.astats.1.RMS_level=-33.115232
  274. [ametadata@pnp @ 000001f1e83e6e40] frame:54   pts:1191758 pts_time:27.024989x
  275. [ametadata@pnp @ 000001f1e83e6e40] lavfi.astats.1.RMS_level=-46.673347
  276. [ametadata@pnpthree @ 000001f1e83e6640] frame:54   pts:1191362 pts_time:27.015
  277. [ametadata@pnpthree @ 000001f1e83e6640] lavfi.astats.1.RMS_level=-26.671011
  278. [ametadata@pnp @ 000001f1e83e6e40] frame:55   pts:1213764 pts_time:27.52399x
  279. [ametadata@pnp @ 000001f1e83e6e40] lavfi.astats.1.RMS_level=-35.671772
  280. [ametadata@pnpthree @ 000001f1e83e6640] frame:55   pts:1213367 pts_time:27.514
  281. [ametadata@pnpthree @ 000001f1e83e6640] lavfi.astats.1.RMS_level=-37.697979
  282. [ametadata@pnp @ 000001f1e83e6e40] frame:56   pts:1235858 pts_time:28.024989x
  283. [ametadata@pnp @ 000001f1e83e6e40] lavfi.astats.1.RMS_level=-51.136727
  284. [ametadata@pnpthree @ 000001f1e83e6640] frame:56   pts:1235417 pts_time:28.014
  285. [ametadata@pnpthree @ 000001f1e83e6640] lavfi.astats.1.RMS_level=-35.889127
  286. [ametadata@pnp @ 000001f1e83e6e40] frame:57   pts:1257423 pts_time:28.513988x
  287. [ametadata@pnp @ 000001f1e83e6e40] lavfi.astats.1.RMS_level=-49.113832
  288. [ametadata@pnpthree @ 000001f1e83e6640] frame:57   pts:1257467 pts_time:28.514
  289. [ametadata@pnpthree @ 000001f1e83e6640] lavfi.astats.1.RMS_level=-35.326623
  290. [ametadata@pnp @ 000001f1e83e6e40] frame:58   pts:1279517 pts_time:29.014989x
  291. [ametadata@pnp @ 000001f1e83e6e40] lavfi.astats.1.RMS_level=-51.915187
  292. [ametadata@pnpthree @ 000001f1e83e6640] frame:58   pts:1279562 pts_time:29.015
  293. [ametadata@pnpthree @ 000001f1e83e6640] lavfi.astats.1.RMS_level=-37.120252
  294. [ametadata@pnp @ 000001f1e83e6e40] frame:59   pts:1301567 pts_time:29.514989x
  295. [ametadata@pnp @ 000001f1e83e6e40] lavfi.astats.1.RMS_level=-49.238721
  296. [ametadata@pnpthree @ 000001f1e83e6640] frame:59   pts:1301567 pts_time:29.514
  297. [ametadata@pnpthree @ 000001f1e83e6640] lavfi.astats.1.RMS_level=-34.418502
  298. frame=  949 fps= 31 q=-1.0 Lsize=N/A time=00:00:31.56 bitrate=N/A speed=1.02x
  299. video:6436kB audio:2757kB subtitle:0kB other streams:0kB global headers:0kB muxing overhead: unknown
  300. [Parsed_astats_0 @ 000001f1e83e7240] Channel: 1
  301. [Parsed_astats_0 @ 000001f1e83e7240] DC offset: -0.000067
  302. [Parsed_astats_0 @ 000001f1e83e7240] Min level: -548.000000
  303. [Parsed_astats_0 @ 000001f1e83e7240] Max level: 570.000000
  304. [Parsed_astats_0 @ 000001f1e83e7240] Min difference: 0.000000
  305. [Parsed_astats_0 @ 000001f1e83e7240] Max difference: 197.000000
  306. [Parsed_astats_0 @ 000001f1e83e7240] Mean difference: 16.960497
  307. [Parsed_astats_0 @ 000001f1e83e7240] RMS difference: 26.166922
  308. [Parsed_astats_0 @ 000001f1e83e7240] Peak level dB: -35.191237
  309. [Parsed_astats_0 @ 000001f1e83e7240] RMS level dB: -49.238721
  310. [Parsed_astats_0 @ 000001f1e83e7240] RMS peak dB: -49.050933
  311. [Parsed_astats_0 @ 000001f1e83e7240] RMS trough dB: -54.001901
  312. [Parsed_astats_0 @ 000001f1e83e7240] Crest factor: 5.039346
  313. [Parsed_astats_0 @ 000001f1e83e7240] Flat factor: 0.000000
  314. [Parsed_astats_0 @ 000001f1e83e7240] Peak count: 2
  315. [Parsed_astats_0 @ 000001f1e83e7240] Bit depth: 16/16
  316. [Parsed_astats_0 @ 000001f1e83e7240] Dynamic range: 61.138097
  317. [Parsed_astats_0 @ 000001f1e83e7240] Zero crossings: 1359
  318. [Parsed_astats_0 @ 000001f1e83e7240] Zero crossings rate: 0.061633
  319. [Parsed_astats_0 @ 000001f1e83e7240] Overall
  320. [Parsed_astats_0 @ 000001f1e83e7240] DC offset: -0.000067
  321. [Parsed_astats_0 @ 000001f1e83e7240] Min level: -548.000000
  322. [Parsed_astats_0 @ 000001f1e83e7240] Max level: 570.000000
  323. [Parsed_astats_0 @ 000001f1e83e7240] Min difference: 0.000000
  324. [Parsed_astats_0 @ 000001f1e83e7240] Max difference: 197.000000
  325. [Parsed_astats_0 @ 000001f1e83e7240] Mean difference: 16.960497
  326. [Parsed_astats_0 @ 000001f1e83e7240] RMS difference: 26.166922
  327. [Parsed_astats_0 @ 000001f1e83e7240] Peak level dB: -35.191237
  328. [Parsed_astats_0 @ 000001f1e83e7240] RMS level dB: -49.238721
  329. [Parsed_astats_0 @ 000001f1e83e7240] RMS peak dB: -49.050933
  330. [Parsed_astats_0 @ 000001f1e83e7240] RMS trough dB: -54.001901
  331. [Parsed_astats_0 @ 000001f1e83e7240] Flat factor: 0.000000
  332. [Parsed_astats_0 @ 000001f1e83e7240] Peak count: 2.000000
  333. [Parsed_astats_0 @ 000001f1e83e7240] Bit depth: 16/16
  334. [Parsed_astats_0 @ 000001f1e83e7240] Number of samples: 22050
  335. [Parsed_astats_2 @ 000001f1e83e6a40] Channel: 1
  336. [Parsed_astats_2 @ 000001f1e83e6a40] DC offset: 0.000179
  337. [Parsed_astats_2 @ 000001f1e83e6a40] Min level: -3094.000000
  338. [Parsed_astats_2 @ 000001f1e83e6a40] Max level: 2481.000000
  339. [Parsed_astats_2 @ 000001f1e83e6a40] Min difference: 0.000000
  340. [Parsed_astats_2 @ 000001f1e83e6a40] Max difference: 367.000000
  341. [Parsed_astats_2 @ 000001f1e83e6a40] Mean difference: 44.981859
  342. [Parsed_astats_2 @ 000001f1e83e6a40] RMS difference: 57.098721
  343. [Parsed_astats_2 @ 000001f1e83e6a40] Peak level dB: -20.498327
  344. [Parsed_astats_2 @ 000001f1e83e6a40] RMS level dB: -34.418502
  345. [Parsed_astats_2 @ 000001f1e83e6a40] RMS peak dB: -29.211223
  346. [Parsed_astats_2 @ 000001f1e83e6a40] RMS trough dB: -39.998333
  347. [Parsed_astats_2 @ 000001f1e83e6a40] Crest factor: 4.966023
  348. [Parsed_astats_2 @ 000001f1e83e6a40] Flat factor: 0.000000
  349. [Parsed_astats_2 @ 000001f1e83e6a40] Peak count: 2
  350. [Parsed_astats_2 @ 000001f1e83e6a40] Bit depth: 16/16
  351. [Parsed_astats_2 @ 000001f1e83e6a40] Dynamic range: 75.831006
  352. [Parsed_astats_2 @ 000001f1e83e6a40] Zero crossings: 858
  353. [Parsed_astats_2 @ 000001f1e83e6a40] Zero crossings rate: 0.038912
  354. [Parsed_astats_2 @ 000001f1e83e6a40] Overall
  355. [Parsed_astats_2 @ 000001f1e83e6a40] DC offset: 0.000179
  356. [Parsed_astats_2 @ 000001f1e83e6a40] Min level: -3094.000000
  357. [Parsed_astats_2 @ 000001f1e83e6a40] Max level: 2481.000000
  358. [Parsed_astats_2 @ 000001f1e83e6a40] Min difference: 0.000000
  359. [Parsed_astats_2 @ 000001f1e83e6a40] Max difference: 367.000000
  360. [Parsed_astats_2 @ 000001f1e83e6a40] Mean difference: 44.981859
  361. [Parsed_astats_2 @ 000001f1e83e6a40] RMS difference: 57.098721
  362. [Parsed_astats_2 @ 000001f1e83e6a40] Peak level dB: -20.498327
  363. [Parsed_astats_2 @ 000001f1e83e6a40] RMS level dB: -34.418502
  364. [Parsed_astats_2 @ 000001f1e83e6a40] RMS peak dB: -29.211223
  365. [Parsed_astats_2 @ 000001f1e83e6a40] RMS trough dB: -39.998333
  366. [Parsed_astats_2 @ 000001f1e83e6a40] Flat factor: 0.000000
  367. [Parsed_astats_2 @ 000001f1e83e6a40] Peak count: 2.000000
  368. [Parsed_astats_2 @ 000001f1e83e6a40] Bit depth: 16/16
  369. [Parsed_astats_2 @ 000001f1e83e6a40] Number of samples: 22050
  370. [libx264 @ 000001f1e83ccb40] frame I:4     Avg QP:21.47  size:134203
  371. [libx264 @ 000001f1e83ccb40] frame P:239   Avg QP:23.75  size: 18891
  372. [libx264 @ 000001f1e83ccb40] frame B:706   Avg QP:26.90  size:  2179
  373. [libx264 @ 000001f1e83ccb40] consecutive B-frames:  0.7%  0.2%  0.0% 99.1%
  374. [libx264 @ 000001f1e83ccb40] mb I  I16..4: 22.8%  0.0% 77.2%
  375. [libx264 @ 000001f1e83ccb40] mb P  I16..4:  0.7%  0.0%  1.1%  P16..4: 41.8% 13.7% 11.4%  0.0%  0.0%    skip:31.4%
  376. [libx264 @ 000001f1e83ccb40] mb B  I16..4:  0.1%  0.0%  0.1%  B16..8: 36.9%  2.0%  0.4%  direct: 0.5%  skip:60.0%  L0:49.6% L1:46.0% BI: 4.4%
  377. [libx264 @ 000001f1e83ccb40] coded y,uvDC,uvAC intra: 63.2% 85.0% 50.5% inter: 5.8% 10.3% 1.6%
  378. [libx264 @ 000001f1e83ccb40] i16 v,h,dc,p: 28% 23%  9% 40%
  379. [libx264 @ 000001f1e83ccb40] i4 v,h,dc,ddl,ddr,vr,hd,vl,hu: 23% 21% 13%  8%  6%  6%  7%  7%  8%
  380. [libx264 @ 000001f1e83ccb40] i8c dc,h,v,p: 47% 20% 22% 11%
  381. [libx264 @ 000001f1e83ccb40] Weighted P-Frames: Y:0.4% UV:0.0%
  382. [libx264 @ 000001f1e83ccb40] ref P L0: 48.5% 12.7% 26.9% 11.9%
  383. [libx264 @ 000001f1e83ccb40] ref B L0: 65.5% 22.8% 11.7%
  384. [libx264 @ 000001f1e83ccb40] ref B L1: 88.0% 12.0%
  385. [libx264 @ 000001f1e83ccb40] kb/s:1666.54
  386. [aac @ 000001f1e83ce500] Qavg: 136.331
  387. Exiting normally, received signal 2.
RAW Paste Data
We use cookies for various purposes including analytics. By continuing to use Pastebin, you agree to our use of cookies as described in the Cookies Policy. OK, I Understand
 
Top