SHARE
TWEET

¡Shazam! HD-RIP 720p

dirtyharrys May 14th, 2019 70 Never
Not a member of Pastebin yet? Sign Up, it unlocks many cool features!
  1. General
  2. Unique ID                   : 282138211224536786737146906810286359892 (0xD441D7CB43AFD8FD5685199C78584554)
  3. Complete name               : E:\SETCoVNoYXphbSE.mkv
  4. Format                      : Matroska
  5. Format version              : Version 4
  6. File size                   : 1.77 GiB
  7. Duration                    : 2 h 10 min
  8. Overall bit rate            : 1 950 kb/s
  9. Movie name                  : ¡Shazam! HD-RIP
  10. Encoded date                : UTC 2019-05-11 08:23:52
  11. Writing application         : mkvmerge v30.1.0 ('Forever And More') 32-bit
  12. Writing library             : libebml v1.3.6 + libmatroska v1.4.9
  13. Copyright                   : Movies HDs 2019
  14. ARTIST                      : HarshLearner
  15.  
  16. Video
  17. ID                          : 1
  18. Format                      : AVC
  19. Format/Info                 : Advanced Video Codec
  20. Format profile              : High@L4.1
  21. Format settings             : CABAC / 4 Ref Frames
  22. Format settings, CABAC      : Yes
  23. Format settings, ReFrames   : 4 frames
  24. Codec ID                    : V_MPEG4/ISO/AVC
  25. Duration                    : 2 h 10 min
  26. Bit rate                    : 1 500 kb/s
  27. Width                       : 1 280 pixels
  28. Height                      : 534 pixels
  29. Display aspect ratio        : 2.40:1
  30. Frame rate mode             : Constant
  31. Frame rate                  : 30.000 FPS
  32. Color space                 : YUV
  33. Chroma subsampling          : 4:2:0
  34. Bit depth                   : 8 bits
  35. Scan type                   : Progressive
  36. Bits/(Pixel*Frame)          : 0.073
  37. Stream size                 : 1.36 GiB (77%)
  38. Writing library             : x264 core 155 r2901 7d0ff22
  39. Default                     : Yes
  40. Forced                      : No
  41. Color range                 : Limited
  42. Color primaries             : BT.709
  43. Transfer characteristics    : BT.709
  44. Matrix coefficients         : BT.709
  45.  
  46. Audio #1
  47. ID                          : 2
  48. Format                      : AC-3
  49. Format/Info                 : Audio Coding 3
  50. Commercial name             : Dolby Digital
  51. Codec ID                    : A_AC3
  52. Duration                    : 2 h 10 min
  53. Bit rate mode               : Constant
  54. Bit rate                    : 192 kb/s
  55. Channel(s)                  : 2 channels
  56. Channel layout              : L R
  57. Sampling rate               : 48.0 kHz
  58. Frame rate                  : 31.250 FPS (1536 SPF)
  59. Bit depth                   : 16 bits
  60. Compression mode            : Lossy
  61. Delay relative to video     : -70 ms
  62. Stream size                 : 179 MiB (10%)
  63. Language                    : English
  64. Service kind                : Complete Main
  65. Default                     : No
  66. Forced                      : No
  67.  
  68. Audio #2
  69. ID                          : 3
  70. Format                      : AC-3
  71. Format/Info                 : Audio Coding 3
  72. Commercial name             : Dolby Digital
  73. Codec ID                    : A_AC3
  74. Duration                    : 2 h 10 min
  75. Bit rate mode               : Constant
  76. Bit rate                    : 256 kb/s
  77. Channel(s)                  : 6 channels
  78. Channel layout              : L R C LFE Ls Rs
  79. Sampling rate               : 48.0 kHz
  80. Frame rate                  : 31.250 FPS (1536 SPF)
  81. Bit depth                   : 16 bits
  82. Compression mode            : Lossy
  83. Delay relative to video     : -72 ms
  84. Stream size                 : 239 MiB (13%)
  85. Language                    : Spanish
  86. Service kind                : Complete Main
  87. Default                     : Yes
  88. Forced                      : Yes
  89.  
  90. Text #1
  91. ID                          : 4
  92. Format                      : SSA
  93. Codec ID                    : S_TEXT/SSA
  94. Codec ID/Info               : Sub Station Alpha
  95. Duration                    : 2 h 4 min
  96. Bit rate                    : 127 b/s
  97. Count of elements           : 1897
  98. Compression mode            : Lossless
  99. Stream size                 : 116 KiB (0%)
  100. Language                    : Spanish
  101. Default                     : Yes
  102. Forced                      : Yes
  103.  
  104. Text #2
  105. ID                          : 5
  106. Format                      : UTF-8
  107. Codec ID                    : S_TEXT/UTF8
  108. Codec ID/Info               : UTF-8 Plain Text
  109. Duration                    : 2 h 4 min
  110. Bit rate                    : 63 b/s
  111. Count of elements           : 1897
  112. Stream size                 : 57.4 KiB (0%)
  113. Language                    : Spanish
  114. Default                     : No
  115. Forced                      : No
  116.  
  117. Menu
  118. 00:00:00.000                : :Capítulo 01
  119. 00:05:00.000                : :Capítulo 02
  120. 00:10:00.000                : :Capítulo 03
  121. 00:15:00.000                : :Capítulo 04
  122. 00:20:00.000                : :Capítulo 05
  123. 00:25:00.000                : :Capítulo 06
  124. 00:30:00.000                : :Capítulo 07
  125. 00:35:00.000                : :Capítulo 08
  126. 00:40:00.000                : :Capítulo 09
  127. 00:45:00.000                : :Capítulo 10
  128. 00:50:00.000                : :Capítulo 11
  129. 00:55:00.000                : :Capítulo 12
  130. 01:00:00.000                : :Capítulo 13
  131. 01:05:00.000                : :Capítulo 14
  132. 01:10:00.000                : :Capítulo 15
  133. 01:15:00.000                : :Capítulo 16
  134. 01:20:00.000                : :Capítulo 17
  135. 01:25:00.000                : :Capítulo 18
  136. 01:30:00.000                : :Capítulo 19
  137. 01:35:00.000                : :Capítulo 20
  138. 01:40:00.000                : :Capítulo 21
  139. 01:45:00.000                : :Capítulo 22
  140. 01:50:00.000                : :Capítulo 23
  141. 01:55:00.000                : :Capítulo 24
  142. 02:00:00.000                : :Capítulo 25
  143. 02:05:00.000                : :Capítulo 26
  144. 02:10:00.000                : :Capítulo 27
RAW Paste Data
We use cookies for various purposes including analytics. By continuing to use Pastebin, you agree to our use of cookies as described in the Cookies Policy. OK, I Understand
 
Top