Henry_Kr

CCS-S01

Apr 18th, 2021
38
Never
Not a member of Pastebin yet? Sign Up, it unlocks many cool features!
  1. Video
  2. ID : 1
  3. Format : AVC
  4. Format/Info : Advanced Video Codec
  5. Format profile : High@L4.1
  6. Format settings : CABAC / 4 Ref Frames
  7. Format settings, CABAC : Yes
  8. Format settings, Reference : 4 frames
  9. Muxing mode : Header stripping
  10. Codec ID : V_MPEG4/ISO/AVC
  11. Duration : 25 min 0 s
  12. Bit rate : 10 000 kb/s
  13. Width : 1 440 pixels
  14. Height : 1 080 pixels
  15. Display aspect ratio : 4:3
  16. Frame rate mode : Constant
  17. Frame rate : 23.899 FPS
  18. Color space : YUV
  19. Chroma subsampling : 4:2:0
  20. Bit depth : 8 bits
  21. Scan type : Progressive
  22. Bits/(Pixel*Frame) : 0.269
  23. Stream size : 1.70 GiB (79%)
  24. Title : Cardcaptor.Sakura.S01E01.Sakura.e.o.Livro.Mágico.1080p.UHD.BluRay.[CartoonNOW]
  25. Writing library : x264 core 157 r2935 545de2f
  26. Language : Japanese
  27. Default : Yes
  28. Forced : No
  29. Color range : Limited
  30. Color primaries : BT.709
  31. Transfer characteristics : BT.709
  32. Matrix coefficients : BT.709
  33.  
  34. Audio #1
  35. ID : 2
  36. Format : DTS
  37. Format/Info : Digital Theater Systems
  38. Muxing mode : Header stripping
  39. Codec ID : A_DTS
  40. Duration : 25 min 0 s
  41. Bit rate mode : Constant
  42. Bit rate : 768 kb/s
  43. Channel(s) : 2 channels
  44. Channel layout : L R
  45. Sampling rate : 48.0 kHz
  46. Frame rate : 93.750 FPS (512 SPF)
  47. Bit depth : 16 bits
  48. Compression mode : Lossy
  49. Stream size : 137 MiB (6%)
  50. Title : DTS 2.0
  51. Language : Portuguese
  52. Default : Yes
  53. Forced : No
  54.  
  55. Audio #2
  56. ID : 3
  57. Format : DTS
  58. Format/Info : Digital Theater Systems
  59. Muxing mode : Header stripping
  60. Codec ID : A_DTS
  61. Duration : 25 min 0 s
  62. Bit rate mode : Constant
  63. Bit rate : 1 509 kb/s
  64. Channel(s) : 6 channels
  65. Channel layout : C L R Ls Rs LFE
  66. Sampling rate : 48.0 kHz
  67. Frame rate : 93.750 FPS (512 SPF)
  68. Bit depth : 16 bits
  69. Compression mode : Lossy
  70. Stream size : 270 MiB (12%)
  71. Title : DTS 5.1
  72. Language : Japanese
  73. Default : No
  74. Forced : No
  75.  
  76. Text
  77. ID : 4
  78. Format : ASS
  79. Codec ID : S_TEXT/ASS
  80. Codec ID/Info : Advanced Sub Station Alpha
  81. Compression mode : Lossless
  82. Title : Completa
  83. Language : Portuguese
  84. Default : No
  85. Forced : No
  86.  
  87. Menu
  88. 00:00:00.000 : en: Abertura
  89. 00:01:20.580 : en: Episódio Parte I
  90. 00:09:58.385 : en: Episódio Parte II
  91. 00:22:14.990 : en: Encerramento
  92. 00:23:25.017 : en: Sessão do Kero
  93. 00:24:31.028 : en: Próximo Episódio
RAW Paste Data

Adblocker detected! Please consider disabling it...

We've detected AdBlock Plus or some other adblocking software preventing Pastebin.com from fully loading.

We don't have any obnoxious sound, or popup ads, we actively block these annoying types of ads!

Please add Pastebin.com to your ad blocker whitelist or disable your adblocking software.

×