SHARE
TWEET

Untitled

a guest Sep 16th, 2019 87 Never
Not a member of Pastebin yet? Sign Up, it unlocks many cool features!
  1. General
  2. Unique ID                                : 189524825983958246990355082389545744818 (0x8E95275C99D88F0BB2A9D2C22756F9B2)
  3. Complete name                            : The Thing 1982 MULTi VFF 1080p HDLight x264.GHT.mkv
  4. Format                                   : Matroska
  5. Format version                           : Version 4
  6. File size                                : 3.08 GiB
  7. Duration                                 : 1 h 48 min
  8. Overall bit rate                         : 4 053 kb/s
  9. Encoded date                             : UTC 2015-08-10 17:38:54
  10. Writing application                      : mkvmerge v8.1.0 ('Psychedelic Postcard') 64bit
  11. Writing library                          : libebml v1.3.1 + libmatroska v1.4.2
  12.  
  13. Video
  14. ID                                       : 1
  15. Format                                   : AVC
  16. Format/Info                              : Advanced Video Codec
  17. Format profile                           : High@L4.1
  18. Format settings                          : CABAC / 4 Ref Frames
  19. Format settings, CABAC                   : Yes
  20. Format settings, ReFrames                : 4 frames
  21. Codec ID                                 : V_MPEG4/ISO/AVC
  22. Duration                                 : 1 h 48 min
  23. Bit rate                                 : 3 000 kb/s
  24. Width                                    : 1 920 pixels
  25. Height                                   : 816 pixels
  26. Display aspect ratio                     : 2.35:1
  27. Frame rate mode                          : Constant
  28. Frame rate                               : 23.976 (24000/1001) FPS
  29. Color space                              : YUV
  30. Chroma subsampling                       : 4:2:0
  31. Bit depth                                : 8 bits
  32. Scan type                                : Progressive
  33. Bits/(Pixel*Frame)                       : 0.080
  34. Stream size                              : 2.28 GiB (74%)
  35. Writing library                          : x264 core 130 r2273 b3065e6
  36. Encoding settings                        : cabac=1 / ref=4 / deblock=1:-1:-1 / analyse=0x3:0x133 / me=umh / subme=9 / psy=1 / psy_rd=1.00:0.15 / mixed_ref=1 / me_range=16 / chroma_me=1 / trellis=1 / 8x8dct=1 / cqm=0 / deadzone=21,11 / fast_pskip=1 / chroma_qp_offset=-3 / threads=9 / lookahead_threads=1 / sliced_threads=0 / nr=0 / decimate=1 / interlaced=0 / bluray_compat=0 / constrained_intra=0 / bframes=3 / b_pyramid=2 / b_adapt=2 / b_bias=0 / direct=3 / weightb=1 / open_gop=0 / weightp=2 / keyint=250 / keyint_min=23 / scenecut=40 / intra_refresh=0 / rc_lookahead=60 / rc=2pass / mbtree=1 / bitrate=3000 / ratetol=1.0 / qcomp=0.60 / qpmin=0 / qpmax=69 / qpstep=4 / cplxblur=20.0 / qblur=0.5 / vbv_maxrate=24000 / vbv_bufsize=24000 / nal_hrd=none / ip_ratio=1.40 / aq=1:1.00
  37. Language                                 : English
  38. Default                                  : Yes
  39. Forced                                   : No
  40.  
  41. Audio #1
  42. ID                                       : 2
  43. Format                                   : AC-3
  44. Format/Info                              : Audio Coding 3
  45. Commercial name                          : Dolby Digital
  46. Codec ID                                 : A_AC3
  47. Duration                                 : 1 h 48 min
  48. Bit rate mode                            : Constant
  49. Bit rate                                 : 448 kb/s
  50. Channel(s)                               : 6 channels
  51. Channel layout                           : L R C LFE Ls Rs
  52. Sampling rate                            : 48.0 kHz
  53. Frame rate                               : 31.250 FPS (1536 SPF)
  54. Bit depth                                : 16 bits
  55. Compression mode                         : Lossy
  56. Stream size                              : 348 MiB (11%)
  57. Title                                    : VFF AC3 5.1 @448kbps
  58. Language                                 : French
  59. Service kind                             : Complete Main
  60. Default                                  : Yes
  61. Forced                                   : No
  62.  
  63. Audio #2
  64. ID                                       : 3
  65. Format                                   : AC-3
  66. Format/Info                              : Audio Coding 3
  67. Commercial name                          : Dolby Digital
  68. Codec ID                                 : A_AC3
  69. Duration                                 : 1 h 48 min
  70. Bit rate mode                            : Constant
  71. Bit rate                                 : 448 kb/s
  72. Channel(s)                               : 6 channels
  73. Channel layout                           : L R C LFE Ls Rs
  74. Sampling rate                            : 48.0 kHz
  75. Frame rate                               : 31.250 FPS (1536 SPF)
  76. Bit depth                                : 16 bits
  77. Compression mode                         : Lossy
  78. Stream size                              : 348 MiB (11%)
  79. Title                                    : VOA AC3 5.1 @448kbps
  80. Language                                 : English
  81. Service kind                             : Complete Main
  82. Default                                  : No
  83. Forced                                   : No
  84.  
  85. Audio #3
  86. ID                                       : 4
  87. Format                                   : AAC LC
  88. Format/Info                              : Advanced Audio Codec Low Complexity
  89. Codec ID                                 : A_AAC-2
  90. Duration                                 : 1 h 48 min
  91. Bit rate                                 : 156 kb/s
  92. Channel(s)                               : 2 channels
  93. Channel layout                           : L R
  94. Sampling rate                            : 48.0 kHz
  95. Frame rate                               : 46.875 FPS (1024 SPF)
  96. Compression mode                         : Lossy
  97. Stream size                              : 121 MiB (4%)
  98. Title                                    : VFF AAC 2.0 @160kbps
  99. Language                                 : French
  100. Default                                  : No
  101. Forced                                   : No
  102.  
  103. Text #1
  104. ID                                       : 5
  105. Format                                   : UTF-8
  106. Codec ID                                 : S_TEXT/UTF8
  107. Codec ID/Info                            : UTF-8 Plain Text
  108. Duration                                 : 1 h 46 min
  109. Bit rate                                 : 0 b/s
  110. Count of elements                        : 12
  111. Stream size                              : 316 Bytes (0%)
  112. Title                                    : SRT FR Forced
  113. Language                                 : French
  114. Default                                  : Yes
  115. Forced                                   : Yes
  116.  
  117. Text #2
  118. ID                                       : 6
  119. Format                                   : UTF-8
  120. Codec ID                                 : S_TEXT/UTF8
  121. Codec ID/Info                            : UTF-8 Plain Text
  122. Duration                                 : 1 h 46 min
  123. Bit rate                                 : 20 b/s
  124. Count of elements                        : 582
  125. Stream size                              : 16.0 KiB (0%)
  126. Title                                    : SRT FR Full
  127. Language                                 : French
  128. Default                                  : No
  129. Forced                                   : No
  130.  
  131. Menu
  132. 00:00:00.000                             : en:Main Titles
  133. 00:02:07.794                             : en:Antarctica, Winter, 1982
  134. 00:04:34.899                             : en:Station 4
  135. 00:07:02.880                             : en:Death in the Snow
  136. 00:10:24.248                             : en:Looking for Answers
  137. 00:14:22.987                             : en:It Begins...
  138. 00:15:49.281                             : en:The Norwegian Camp
  139. 00:22:14.249                             : en:The Man-Thing
  140. 00:24:50.447                             : en:What Appears to Be Normal
  141. 00:27:01.619                             : en:The Beast Within
  142. 00:30:13.812                             : en:The Thing
  143. 00:33:03.481                             : en:Autopsy on an Alien
  144. 00:34:15.720                             : en:The Perfect Imitation
  145. 00:36:03.411                             : en:Something in the Ice
  146. 00:37:22.657                             : en:The Crater
  147. 00:40:05.444                             : en:It's Different Than Us
  148. 00:41:44.627                             : en:The Probability of Infection
  149. 00:45:32.312                             : en:They're Not Dead Yet
  150. 00:46:31.747                             : en:The Thing That Was Bennings
  151. 00:50:18.223                             : en:Blair Goes Berserk
  152. 00:54:44.197                             : en:Matters of Trust
  153. 00:57:36.411                             : en:Bad Blood
  154. 00:59:08.795                             : en:The Man-in-Charge
  155. 01:02:47.388                             : en:Waiting
  156. 01:05:28.382                             : en:Where's Fuchs?
  157. 01:09:51.979                             : en:Macready Cuts Loose
  158. 01:14:23.667                             : en:The Deadly Defibrillation
  159. 01:17:43.700                             : en:A Little Test
  160. 01:18:44.803                             : en:Something in the Blood
  161. 01:25:18.571                             : en:Finishing the Test
  162. 01:26:41.237                             : en:Blair's Little Project
  163. 01:29:19.187                             : en:No Way Out
  164. 01:31:14.969                             : en:Warming Things Up
  165. 01:34:25.701                             : en:Right Down Into the Ice
  166. 01:37:19.333                             : en:The Real Thing
  167. 01:39:14.448                             : en:One Last Thing
  168. 01:42:09.206                             : en:End Titles
  169. 01:48:42.182                             : en:01:48:42.182
RAW Paste Data
We use cookies for various purposes including analytics. By continuing to use Pastebin, you agree to our use of cookies as described in the Cookies Policy. OK, I Understand
 
Top