Guest User

Taskmaster - Series 3

a guest
Dec 2nd, 2017
38
Never
Not a member of Pastebin yet? Sign Up, it unlocks many cool features!
  1. General
  2. Complete name : Taskmaster S03E01.avi
  3. Format : AVI
  4. Format/Info : Audio Video Interleave
  5. File size : 448 MiB
  6. Duration : 44 min 54 s
  7. Overall bit rate mode : Variable
  8. Overall bit rate : 1 395 kb/s
  9. Writing application : VirtualDubMod 1.5.10.2 (build 2540/release)
  10. Writing library : VirtualDubMod build 2540/release
  11.  
  12. Video
  13. ID : 0
  14. Format : MPEG-4 Visual
  15. Format profile : Advanced Simple@L5
  16. Format settings, BVOP : 1
  17. Format settings, QPel : No
  18. Format settings, GMC : No warppoints
  19. Format settings, Matrix : Default (H.263)
  20. Muxing mode : Packed bitstream
  21. Codec ID : XVID
  22. Codec ID/Hint : XviD
  23. Duration : 44 min 54 s
  24. Bit rate : 1 250 kb/s
  25. Width : 640 pixels
  26. Height : 352 pixels
  27. Display aspect ratio : 16:9
  28. Frame rate : 25.000 FPS
  29. Color space : YUV
  30. Chroma subsampling : 4:2:0
  31. Bit depth : 8 bits
  32. Scan type : Progressive
  33. Compression mode : Lossy
  34. Bits/(Pixel*Frame) : 0.222
  35. Stream size : 401 MiB (90%)
  36. Writing library : XviD 67
  37.  
  38. Audio
  39. ID : 1
  40. Format : MPEG Audio
  41. Format version : Version 1
  42. Format profile : Layer 3
  43. Mode : Joint stereo
  44. Mode extension : MS Stereo
  45. Codec ID : 55
  46. Codec ID/Hint : MP3
  47. Duration : 44 min 54 s
  48. Bit rate mode : Variable
  49. Bit rate : 128 kb/s
  50. Channel(s) : 2 channels
  51. Sampling rate : 48.0 kHz
  52. Compression mode : Lossy
  53. Stream size : 42.4 MiB (9%)
  54. Alignment : Aligned on interleaves
  55. Interleave, duration : 24 ms (0.60 video frame)
  56. Interleave, preload duratio : 488 ms
  57. Writing library : LAME3.90.
  58. Encoding settings : -m j -V 4 -q 2 -lowpass 17.6 --abr 128
RAW Paste Data