bog3417

Untitled

Nov 27th, 2013
241
Never
Not a member of Pastebin yet? Sign Up, it unlocks many cool features!
  1. Общее
  2. Уникальный идентификатор : 221261007377659079509169491559535731517 (0xA67551E91EF00351B5650FC146C1E33D)
  3. Полное имя : D:\Persi.Dzekson.i.more.chudovisch.2013.x264.BDRemux.(1080p).mkv
  4. Формат : Matroska
  5. Версия формата : Version 2
  6. Размер файла : 27,1 Гбайт
  7. Продолжительность : 1 ч. 46 м.
  8. Режим общего битрейта : Переменный
  9. Общий поток : 36,6 Мбит/сек
  10. Название фильма : Percy Jackson: Sea of Monsters (2013)
  11. Дата кодирования : UTC 2013-11-27 18:38:34
  12. Программа кодирования : mkvmerge v6.3.0 ('You can't stop me!') built on Jun 28 2013 20:09:41
  13. Библиотека кодирования : libebml v1.3.0 + libmatroska v1.4.0
  14.  
  15. Видео
  16. Идентификатор : 1
  17. Формат : AVC
  18. Формат/Информация : Advanced Video Codec
  19. Профиль формата : High@L4.1
  20. Параметр CABAC формата : Да
  21. Параметр ReFrames формата : 4 кадра
  22. Идентификатор кодека : V_MPEG4/ISO/AVC
  23. Продолжительность : 1 ч. 46 м.
  24. Вид битрейта : Переменный
  25. Максимальный битрейт : 31,4 Мбит/сек
  26. Ширина : 1920 пикселей
  27. Высота : 1080 пикселей
  28. Соотношение сторон : 16:9
  29. Режим частоты кадров : Постоянный
  30. Частота кадров : 23,976 кадра/сек
  31. Цветовое пространство : YUV
  32. Субдискретизация насыщенности : 4:2:0
  33. Битовая глубина : 8 бит
  34. Тип развёртки : Прогрессивная
  35. Default : Да
  36. Forced : Нет
  37.  
  38. Аудио #1
  39. Идентификатор : 2
  40. Формат : DTS
  41. Формат/Информация : Digital Theater Systems
  42. Режим : 16
  43. Параметр Endianness формата : Big
  44. Идентификатор кодека : A_DTS
  45. Продолжительность : 1 ч. 46 м.
  46. Вид битрейта : Постоянный
  47. Битрейт : 768 Кбит/сек
  48. Каналы : 6 каналов
  49. Расположение каналов : Front: L C R, Side: L R, LFE
  50. Частота : 48,0 КГц
  51. Битовая глубина : 24 бит
  52. Метод сжатия : С потерями
  53. Размер потока : 583 Мбайт (2%)
  54. Заголовок : DTS 5.1 @ 768 kbps - DUB, Blu-ray EUR
  55. Язык : Russian
  56. Default : Да
  57. Forced : Нет
  58.  
  59. Аудио #2
  60. Идентификатор : 3
  61. Формат : AC-3
  62. Формат/Информация : Audio Coding 3
  63. Расширение режима : CM (complete main)
  64. Параметр Endianness формата : Big
  65. Идентификатор кодека : A_AC3
  66. Продолжительность : 1 ч. 46 м.
  67. Вид битрейта : Постоянный
  68. Битрейт : 448 Кбит/сек
  69. Каналы : 6 каналов
  70. Расположение каналов : Front: L C R, Side: L R, LFE
  71. Частота : 48,0 КГц
  72. Битовая глубина : 16 бит
  73. Метод сжатия : С потерями
  74. Размер потока : 340 Мбайт (1%)
  75. Язык : Russian
  76. Default : Нет
  77. Forced : Нет
  78.  
  79. Аудио #3
  80. Идентификатор : 4
  81. Формат : AC-3
  82. Формат/Информация : Audio Coding 3
  83. Расширение режима : CM (complete main)
  84. Параметр Endianness формата : Big
  85. Идентификатор кодека : A_AC3
  86. Продолжительность : 1 ч. 46 м.
  87. Вид битрейта : Постоянный
  88. Битрейт : 448 Кбит/сек
  89. Каналы : 6 каналов
  90. Расположение каналов : Front: L C R, Side: L R, LFE
  91. Частота : 48,0 КГц
  92. Битовая глубина : 16 бит
  93. Метод сжатия : С потерями
  94. Размер потока : 340 Мбайт (1%)
  95. Заголовок : AC3 5.1 @ 448 kbps - DUB, Blu-ray EUR
  96. Язык : Ukrainian
  97. Default : Нет
  98. Forced : Нет
  99.  
  100. Аудио #4
  101. Идентификатор : 5
  102. Формат : DTS
  103. Формат/Информация : Digital Theater Systems
  104. Профиль формата : MA / Core
  105. Режим : 16
  106. Параметр Endianness формата : Big
  107. Идентификатор кодека : A_DTS
  108. Продолжительность : 1 ч. 46 м.
  109. Вид битрейта : Переменный
  110. Битрейт : Неизвестно / 1509 Кбит/сек
  111. Каналы : 8 каналов / 6 каналов
  112. Расположение каналов : Front: L C R, Side: L R, Back: L R, LFE / Front: L C R, Side: L R, LFE
  113. Частота : 48,0 КГц
  114. Битовая глубина : 24 бит
  115. Метод сжатия : Без потерь / Lossy
  116. Язык : English
  117. Default : Нет
  118. Forced : Нет
  119.  
  120. Аудио #5
  121. Идентификатор : 6
  122. Формат : AC-3
  123. Формат/Информация : Audio Coding 3
  124. Расширение режима : CM (complete main)
  125. Параметр Endianness формата : Big
  126. Идентификатор кодека : A_AC3
  127. Продолжительность : 1 ч. 46 м.
  128. Вид битрейта : Постоянный
  129. Битрейт : 448 Кбит/сек
  130. Каналы : 6 каналов
  131. Расположение каналов : Front: L C R, Side: L R, LFE
  132. Частота : 48,0 КГц
  133. Битовая глубина : 16 бит
  134. Метод сжатия : С потерями
  135. Размер потока : 340 Мбайт (1%)
  136. Заголовок : AC3 5.1 @ 448 kbps - Descriptive
  137. Язык : English
  138. Default : Нет
  139. Forced : Нет
  140.  
  141. Текст #1
  142. Идентификатор : 7
  143. Формат : UTF-8
  144. Идентификатор кодека : S_TEXT/UTF8
  145. Идентификатор кодека/Информация : UTF-8 Plain Text
  146. Заголовок : Blu-ray EUR
  147. Язык : Russian
  148. Default : Нет
  149. Forced : Нет
  150.  
  151. Текст #2
  152. Идентификатор : 8
  153. Формат : UTF-8
  154. Идентификатор кодека : S_TEXT/UTF8
  155. Идентификатор кодека/Информация : UTF-8 Plain Text
  156. Заголовок : Blu-ray EUR
  157. Язык : Ukrainian
  158. Default : Нет
  159. Forced : Нет
  160.  
  161. Текст #3
  162. Идентификатор : 9
  163. Формат : UTF-8
  164. Идентификатор кодека : S_TEXT/UTF8
  165. Идентификатор кодека/Информация : UTF-8 Plain Text
  166. Язык : English
  167. Default : Нет
  168. Forced : Нет
  169.  
  170. Текст #4
  171. Идентификатор : 10
  172. Формат : UTF-8
  173. Идентификатор кодека : S_TEXT/UTF8
  174. Идентификатор кодека/Информация : UTF-8 Plain Text
  175. Заголовок : SDH-COLORED
  176. Язык : English
  177. Default : Нет
  178. Forced : Нет
  179.  
  180. Меню
  181. 00:00:00.000 : en:00:00:00.000
  182. 00:04:05.454 : en:00:04:05.454
  183. 00:06:43.069 : en:00:06:43.069
  184. 00:09:31.696 : en:00:09:31.696
  185. 00:13:53.124 : en:00:13:53.124
  186. 00:19:17.156 : en:00:19:17.156
  187. 00:20:48.038 : en:00:20:48.038
  188. 00:22:10.496 : en:00:22:10.496
  189. 00:25:30.529 : en:00:25:30.529
  190. 00:28:22.826 : en:00:28:22.826
  191. 00:30:27.534 : en:00:30:27.534
  192. 00:33:19.998 : en:00:33:19.998
  193. 00:37:01.261 : en:00:37:01.261
  194. 00:39:49.596 : en:00:39:49.596
  195. 00:45:16.380 : en:00:45:16.380
  196. 00:48:50.177 : en:00:48:50.177
  197. 00:52:42.951 : en:00:52:42.951
  198. 00:56:35.100 : en:00:56:35.100
  199. 01:00:19.866 : en:01:00:19.866
  200. 01:03:35.895 : en:01:03:35.895
  201. 01:05:40.687 : en:01:05:40.687
  202. 01:10:41.696 : en:01:10:41.696
  203. 01:12:32.181 : en:01:12:32.181
  204. 01:16:52.817 : en:01:16:52.817
  205. 01:19:39.441 : en:01:19:39.441
  206. 01:23:01.768 : en:01:23:01.768
  207. 01:25:45.807 : en:01:25:45.807
  208. 01:29:54.264 : en:01:29:54.264
  209. 01:32:47.312 : en:01:32:47.312
  210. 01:34:25.243 : en:01:34:25.243
  211. 01:36:07.971 : en:01:36:07.971
  212. 01:37:39.187 : en:01:37:39.187
RAW Paste Data