SHARE
TWEET

Untitled

ajthemacboy Mar 4th, 2015 245 Never
Not a member of Pastebin yet? Sign Up, it unlocks many cool features!
  1. General
  2. ID                                       : 1 (0x1)
  3. Complete name                            : F:\vlc-record-2015-03-03-13h54m07s-fd___0-.ts
  4. Format                                   : MPEG-TS
  5. File size                                : 48.9 MiB
  6. Duration                                 : 1mn 45s
  7. Overall bit rate mode                    : Variable
  8. Overall bit rate                         : 3 749 Kbps
  9.  
  10. Video
  11. ID                                       : 257 (0x101)
  12. Menu ID                                  : 1 (0x1)
  13. Format                                   : AVC
  14. Format/Info                              : Advanced Video Codec
  15. Format profile                           : Main@L3.1
  16. Format settings, CABAC                   : Yes
  17. Format settings, ReFrames                : 1 frame
  18. Codec ID                                 : 27
  19. Duration                                 : 1mn 46s
  20. Bit rate mode                            : Constant
  21. Bit rate                                 : 3 500 Kbps
  22. Width                                    : 1 088 pixels
  23. Height                                   : 576 pixels
  24. Display aspect ratio                     : 1.889
  25. Frame rate                               : 30.000 fps
  26. Color space                              : YUV
  27. Chroma subsampling                       : 4:2:0
  28. Bit depth                                : 8 bits
  29. Scan type                                : Progressive
  30. Bits/(Pixel*Frame)                       : 0.186
  31. Stream size                              : 43.4 MiB (89%)
  32.  
  33. Audio
  34. ID                                       : 256 (0x100)
  35. Menu ID                                  : 1 (0x1)
  36. Format                                   : MPEG Audio
  37. Format version                           : Version 1
  38. Format profile                           : Layer 3
  39. Mode                                     : Joint stereo
  40. Mode extension                           : MS Stereo
  41. Codec ID                                 : 3
  42. Duration                                 : 1mn 45s
  43. Bit rate mode                            : Constant
  44. Bit rate                                 : 128 Kbps
  45. Channel(s)                               : 2 channels
  46. Sampling rate                            : 44.1 KHz
  47. Compression mode                         : Lossy
  48. Delay relative to video                  : 26ms
  49. Stream size                              : 1.62 MiB (3%)
  50.  
  51. Menu
  52. ID                                       : 4096 (0x1000)
  53. Menu ID                                  : 1 (0x1)
  54. Duration                                 : 1mn 45s
  55. List                                     : 256 (0x100) (MPEG Audio) / 257 (0x101) (AVC) / 258 (0x102) ()
RAW Paste Data
We use cookies for various purposes including analytics. By continuing to use Pastebin, you agree to our use of cookies as described in the Cookies Policy. OK, I Understand
Top