Guest User

Untitled

a guest
Jul 4th, 2017
490
Never
Not a member of Pastebin yet? Sign Up, it unlocks many cool features!
  1. General
  2. Unique ID : 226751591439343154783514088312300938225 (0xAA96C49AEE29BCAE9551FA31DBFCA3F1)
  3. Complete name : F:\Video\Resident.Evil.Vendetta.2017.BDREMUX.1080p.ExKinoRay.mkv
  4. Format : Matroska
  5. Format version : Version 4 / Version 2
  6. File size : 20.4 GiB
  7. Duration : 1 h 37 min
  8. Overall bit rate mode : Variable
  9. Overall bit rate : 30.0 Mb/s
  10. Encoded date : UTC 2017-07-04 12:19:28
  11. Writing application : mkvmerge v13.0.0 ('The Juggler') 64bit
  12. Writing library : libebml v1.3.4 + libmatroska v1.4.5
  13.  
  14. Video
  15. ID : 1
  16. Format : AVC
  17. Format/Info : Advanced Video Codec
  18. Format profile : High@L4.1
  19. Format settings, CABAC : Yes
  20. Format settings, ReFrames : 2 frames
  21. Format settings, GOP : M=1, N=10
  22. Codec ID : V_MPEG4/ISO/AVC
  23. Duration : 1 h 37 min
  24. Bit rate mode : Variable
  25. Bit rate : 25.5 Mb/s
  26. Width : 1 920 pixels
  27. Height : 1 080 pixels
  28. Display aspect ratio : 16:9
  29. Frame rate mode : Constant
  30. Frame rate : 23.976 (24000/1001) FPS
  31. Color space : YUV
  32. Chroma subsampling : 4:2:0
  33. Bit depth : 8 bits
  34. Scan type : Progressive
  35. Bits/(Pixel*Frame) : 0.512
  36. Stream size : 17.3 GiB (85%)
  37. Language : English
  38. Default : Yes
  39. Forced : No
  40.  
  41. Audio #1
  42. ID : 2
  43. Format : AC-3
  44. Format/Info : Audio Coding 3
  45. Format settings, Endianness : Big
  46. Codec ID : A_AC3
  47. Duration : 1 h 37 min
  48. Bit rate mode : Constant
  49. Bit rate : 384 kb/s
  50. Channel(s) : 6 channels
  51. Channel positions : Front: L C R, Side: L R, LFE
  52. Sampling rate : 48.0 kHz
  53. Frame rate : 31.250 FPS (1536 spf)
  54. Bit depth : 16 bits
  55. Compression mode : Lossy
  56. Stream size : 267 MiB (1%)
  57. Title : Dub [iTunes]
  58. Language : Russian
  59. Service kind : Complete Main
  60. Default : Yes
  61. Forced : No
  62.  
  63. Audio #2
  64. ID : 3
  65. Format : DTS
  66. Format/Info : Digital Theater Systems
  67. Format profile : MA / Core
  68. Mode : 16
  69. Format settings, Endianness : Big
  70. Codec ID : A_DTS
  71. Duration : 1 h 37 min
  72. Bit rate mode : Variable / Constant
  73. Bit rate : 4 137 kb/s / 1 509 kb/s
  74. Channel(s) : 6 channels
  75. Channel positions : Front: L C R, Side: L R, LFE
  76. Sampling rate : 48.0 kHz
  77. Frame rate : 93.750 FPS (512 spf)
  78. Bit depth : 24 bits
  79. Compression mode : Lossless / Lossy
  80. Stream size : 2.81 GiB (14%)
  81. Title : Original
  82. Language : English
  83. Default : No
  84. Forced : No
  85.  
  86. Text #1
  87. ID : 4
  88. Format : UTF-8
  89. Codec ID : S_TEXT/UTF8
  90. Codec ID/Info : UTF-8 Plain Text
  91. Duration : 1 h 35 min
  92. Bit rate : 48 b/s
  93. Count of elements : 600
  94. Stream size : 33.9 KiB (0%)
  95. Title : Full
  96. Language : Russian
  97. Default : No
  98. Forced : No
  99.  
  100. Text #2
  101. ID : 5
  102. Format : UTF-8
  103. Codec ID : S_TEXT/UTF8
  104. Codec ID/Info : UTF-8 Plain Text
  105. Duration : 1 h 35 min
  106. Bit rate : 28 b/s
  107. Count of elements : 587
  108. Stream size : 19.9 KiB (0%)
  109. Title : Full
  110. Language : English
  111. Default : No
  112. Forced : No
  113.  
  114. Menu
  115. 00:00:00.000 : en:00:00:00.000
  116. 00:01:57.492 : en:00:01:57.492
  117. 00:11:47.624 : en:00:11:47.624
  118. 00:17:51.946 : en:00:17:51.946
  119. 00:25:12.261 : en:00:25:12.261
  120. 00:31:00.567 : en:00:31:00.567
  121. 00:36:43.118 : en:00:36:43.118
  122. 00:42:49.817 : en:00:42:49.817
  123. 00:48:20.981 : en:00:48:20.981
  124. 00:53:50.853 : en:00:53:50.853
  125. 00:58:51.027 : en:00:58:51.027
  126. 01:06:58.598 : en:01:06:58.598
  127. 01:11:38.836 : en:01:11:38.836
  128. 01:15:13.050 : en:01:15:13.050
  129. 01:21:41.688 : en:01:21:41.688
  130. 01:29:38.748 : en:01:29:38.748
RAW Paste Data