HYBRID_BEING

[DameDesuYo] Kobayashi-san Chi no Maid Dragon - 01 (1920x1080 10bit AAC) [08739830].mkv

Feb 23rd, 2017
174
Never
Not a member of Pastebin yet? Sign Up, it unlocks many cool features!
  1. General
  2. Unique ID : 224800919817786014885042843850532553666 (0xA91F1511A1B04B5580FB87499F4183C2)
  3. Complete name : [DameDesuYo] Kobayashi-san Chi no Maid Dragon - 01 (1920x1080 10bit AAC) [08739830].mkv
  4. Format : Matroska
  5. Format version : Version 4 / Version 2
  6. File size : 810 MiB
  7. Duration : 23 min
  8. Overall bit rate : 4 788 kb/s
  9. Movie name : Kobayashi-san Chi no Maid Dragon - 01 - The Strongest Maid in History, Tohru! (Well, She is a Dragon)
  10. Encoded date : UTC 2017-01-30 18:07:10
  11. Writing application : mkvmerge v9.6.0 ('Slave To Your Mind') 64bit
  12. Writing library : libebml v1.3.4 + libmatroska v1.4.5
  13. Attachments : CronosPro-BoldIt.otf / DFFuun-W12-WING-RKSJ-H.ttf / DFGCraftSuW9-En.ttf / Embryonic-Inside-RegularM.ttf / font_1_ant-maru.ttf / Full-Dece-Sans-1.0.ttf / fuuc_3.TTC / HWYGWDE.TTF / LEVIMARKER.TTF / LEXIB_.TTF / Marker_SD_Regular.ttf / Mars Attacks.ttf / OLDENGL.TTF / One Off Title.ttf / pencilCASE.ttf / Retropop.otf / Scratch_Regular.ttf / SF Archery Black.ttf / SF_Junk_Culture.ttf / Signika-Regular.otf / soutane-bold.ttf / Splash.ttf / Tank tech B.ttf / URWAlcuinT.ttf / Advert-Bold.otf / AltonaBold.otf / A-OTF-GothicMB101Pro-NazoKano.ttf / A-OTF-KanteiryuStd-Ultra.otf / ARISTON1.TTF / ArnoPro-BoldCaption.otf / ArnoPro-Caption.otf / Balloon.TTF / BN Pinky.ttf / Bolt Bold BT PL.ttf / BorisBlackBloxx.ttf / BPreplay.otf / Burst_My_Bubble_Regular.ttf / CFCrayons-Regular.ttf / Chewy.ttf / chinrg.ttf / Clannad_Round_Regular_0.ttf / comicbd.ttf / CronosPro-Bold.otf / OpenSans-Semibold.ttf
  14.  
  15. Video
  16. ID : 1
  17. Format : AVC
  18. Format/Info : Advanced Video Codec
  19. Format profile : High 10@L5.1
  20. Format settings, CABAC : Yes
  21. Format settings, ReFrames : 16 frames
  22. Codec ID : V_MPEG4/ISO/AVC
  23. Duration : 23 min
  24. Bit rate : 4 469 kb/s
  25. Width : 1 920 pixels
  26. Height : 1 080 pixels
  27. Display aspect ratio : 16:9
  28. Frame rate mode : Constant
  29. Frame rate : 23.976 (24000/1001) FPS
  30. Color space : YUV
  31. Chroma subsampling : 4:2:0
  32. Bit depth : 10 bits
  33. Scan type : Progressive
  34. Bits/(Pixel*Frame) : 0.090
  35. Stream size : 756 MiB (93%)
  36. Writing library : x264 core 148 r2705+54 9f484c1 t_mod_Custom [10-bit@all X86_64]
  37. Encoding settings : cabac=1 / ref=16 / deblock=1:-2:-2 / analyse=0x3:0x133 / me=umh / subme=10 / psy=1 / fade_compensate=0.50 / psy_rd=0.75:0.00 / mixed_ref=1 / me_range=32 / chroma_me=1 / trellis=2 / 8x8dct=1 / cqm=0 / deadzone=21,11 / fast_pskip=0 / chroma_qp_offset=-2 / threads=12 / lookahead_threads=3 / sliced_threads=0 / nr=0 / decimate=0 / interlaced=0 / bluray_compat=0 / constrained_intra=0 / fgo=0 / bframes=16 / b_pyramid=2 / b_adapt=2 / b_bias=0 / direct=3 / weightb=1 / open_gop=0 / weightp=2 / keyint=480 / keyint_min=12 / scenecut=40 / intra_refresh=0 / rc_lookahead=48 / rc=crf / mbtree=1 / crf=16.5000 / qcomp=0.75 / qpmin=0:0:0 / qpmax=51:51:51 / qpstep=4 / ip_ratio=1.40 / aq=3:0.90 / aq-sensitivity=10.00 / aq-factor=1.00:1.00:1.00 / aq2=0 / aq3=0
  38. Language : English
  39. Default : Yes
  40. Forced : No
  41. Color range : Limited
  42. Matrix coefficients : BT.709
  43.  
  44. Audio
  45. ID : 2
  46. Format : AAC
  47. Format/Info : Advanced Audio Codec
  48. Format profile : LC
  49. Codec ID : A_AAC
  50. Duration : 23 min
  51. Bit rate : 128 kb/s
  52. Channel(s) : 2 channels
  53. Channel positions : Front: L R
  54. Sampling rate : 44.1 kHz
  55. Frame rate : 43.066 FPS (1024 spf)
  56. Compression mode : Lossy
  57. Stream size : 21.7 MiB (3%)
  58. Language : Japanese
  59. Default : Yes
  60. Forced : No
  61.  
  62. Text
  63. ID : 3
  64. Format : ASS
  65. Codec ID : S_TEXT/ASS
  66. Codec ID/Info : Advanced Sub Station Alpha
  67. Duration : 23 min
  68. Bit rate : 6 741 b/s
  69. Count of elements : 3286
  70. Compression mode : Lossless
  71. Stream size : 1.11 MiB (0%)
  72. Language : English
  73. Default : Yes
  74. Forced : No
  75.  
  76. Menu
  77. 00:00:00.033 : en:Intro
  78. 00:02:13.020 : en:OP
  79. 00:03:43.030 : en:Part A
  80. 00:12:04.990 : en:Part B
  81. 00:21:10.950 : en:Ending
  82. 00:23:24.960 : en:Preview
RAW Paste Data