Henry_Kr

ABPQ-S05

Oct 28th, 2019
211
Never
Not a member of Pastebin yet? Sign Up, it unlocks many cool features!
  1. Video
  2. ID : 1
  3. Format : AVC
  4. Format/Info : Advanced Video Codec
  5. Format profile : High@L4
  6. Format settings : CABAC / 4 Ref Frames
  7. Format settings, CABAC : Yes
  8. Format settings, Reference : 4 frames
  9. Muxing mode : Header stripping
  10. Codec ID : V_MPEG4/ISO/AVC
  11. Duration : 22 min 3 s
  12. Bit rate : 3 024 kb/s
  13. Width : 1 920 pixels
  14. Height : 1 080 pixels
  15. Display aspect ratio : 16:9
  16. Frame rate mode : Constant
  17. Frame rate : 23.976 (24000/1001) FPS
  18. Color space : YUV
  19. Chroma subsampling : 4:2:0
  20. Bit depth : 8 bits
  21. Scan type : Progressive
  22. Bits/(Pixel*Frame) : 0.061
  23. Stream size : 466 MiB (82%)
  24. Title : Avengers.Black.Panthers.Quest.S05E01.A.Sombra.de.Atlântida.1080p.WEB-DL.[CartoonNOW]
  25. Writing library : x264 core 155 r2901 7d0ff22
  26. Language : English
  27. Default : Yes
  28. Forced : No
  29. Color range : Limited
  30. Color primaries : BT.709
  31. Transfer characteristics : BT.709
  32. Matrix coefficients : BT.709
  33.  
  34. Audio #1
  35. ID : 2
  36. Format : AC-3
  37. Format/Info : Audio Coding 3
  38. Commercial name : Dolby Digital
  39. Muxing mode : Header stripping
  40. Codec ID : A_AC3
  41. Duration : 22 min 3 s
  42. Bit rate mode : Constant
  43. Bit rate : 192 kb/s
  44. Channel(s) : 2 channels
  45. Channel layout : L R
  46. Sampling rate : 44.1 kHz
  47. Frame rate : 28.711 FPS (1536 SPF)
  48. Compression mode : Lossy
  49. Stream size : 30.3 MiB (5%)
  50. Title : AC3 - 2.0
  51. Language : Portuguese
  52. Service kind : Complete Main
  53. Default : Yes
  54. Forced : No
  55.  
  56. Audio #2
  57. ID : 3
  58. Format : AC-3
  59. Format/Info : Audio Coding 3
  60. Commercial name : Dolby Digital
  61. Muxing mode : Header stripping
  62. Codec ID : A_AC3
  63. Duration : 22 min 3 s
  64. Bit rate mode : Constant
  65. Bit rate : 384 kb/s
  66. Channel(s) : 6 channels
  67. Channel layout : L R C LFE Ls Rs
  68. Sampling rate : 48.0 kHz
  69. Frame rate : 31.250 FPS (1536 SPF)
  70. Compression mode : Lossy
  71. Stream size : 60.6 MiB (11%)
  72. Title : AC3 - 5.1
  73. Language : English
  74. Service kind : Complete Main
  75. Default : No
  76. Forced : No
RAW Paste Data

Adblocker detected! Please consider disabling it...

We've detected AdBlock Plus or some other adblocking software preventing Pastebin.com from fully loading.

We don't have any obnoxious sound, or popup ads, we actively block these annoying types of ads!

Please add Pastebin.com to your ad blocker whitelist or disable your adblocking software.

×