GrabHD

Untitled

Feb 28th, 2020
142
Never
Not a member of Pastebin yet? Sign Up, it unlocks many cool features!
  1. General
  2. Unique ID : 280565507211116390457427136015011926705 (0xD312F37FE0AE28BEF6E8037732D3D2B1)
  3. Complete name : Hors.normes.2019.720p.WEB-DL.Rus.mkv
  4. Format : Matroska
  5. Format version : Version 4
  6. File size : 3.52 GiB
  7. Duration : 1 h 53 min
  8. Overall bit rate : 4 437 kb/s
  9. Encoded date : UTC 2020-02-28 19:15:10
  10. Writing application : mkvmerge v43.0.0 ('The Quartermaster') 64-bit
  11. Writing library : libebml v1.3.10 + libmatroska v1.5.2
  12. Cover : Yes
  13. Attachments : cover.jpg
  14.  
  15. Video
  16. ID : 1
  17. Format : AVC
  18. Format/Info : Advanced Video Codec
  19. Format profile : Main@L3.1
  20. Format settings : 2 Ref Frames
  21. Format settings, CABAC : No
  22. Format settings, Reference : 2 frames
  23. Codec ID : V_MPEG4/ISO/AVC
  24. Duration : 1 h 53 min
  25. Bit rate : 4 051 kb/s
  26. Width : 1 280 pixels
  27. Height : 536 pixels
  28. Display aspect ratio : 2.40:1
  29. Frame rate mode : Constant
  30. Frame rate : 23.976 (24000/1001) FPS
  31. Color space : YUV
  32. Chroma subsampling : 4:2:0
  33. Bit depth : 8 bits
  34. Scan type : Progressive
  35. Bits/(Pixel*Frame) : 0.246
  36. Stream size : 3.21 GiB (91%)
  37. Title : Main Program
  38. Language : French
  39. Default : Yes
  40. Forced : No
  41. Color range : Limited
  42. Color primaries : BT.709
  43. Transfer characteristics : BT.709
  44. Matrix coefficients : BT.709
  45.  
  46. Audio
  47. ID : 2
  48. Format : AC-3
  49. Format/Info : Audio Coding 3
  50. Commercial name : Dolby Digital
  51. Codec ID : A_AC3
  52. Duration : 1 h 53 min
  53. Bit rate mode : Constant
  54. Bit rate : 384 kb/s
  55. Channel(s) : 6 channels
  56. Channel layout : L R C LFE Ls Rs
  57. Sampling rate : 48.0 kHz
  58. Frame rate : 31.250 FPS (1536 SPF)
  59. Compression mode : Lossy
  60. Stream size : 312 MiB (9%)
  61. Title : Russian DUB from iTunes Russia DD 5.1
  62. Language : Russian
  63. Service kind : Complete Main
  64. Default : Yes
  65. Forced : No
  66.  
  67. Menu
  68. 00:00:00.000 : en:Глава 1
  69. 00:06:54.372 : en:Глава 2
  70. 00:15:09.241 : en:Глава 3
  71. 00:25:09.591 : en:Глава 4
  72. 00:37:04.347 : en:Глава 5
  73. 00:43:33.152 : en:Глава 6
  74. 00:51:16.949 : en:Глава 7
  75. 00:58:39.391 : en:Глава 8
  76. 01:04:28.823 : en:Глава 9
  77. 01:10:21.759 : en:Глава 10
  78. 01:17:54.169 : en:Глава 11
  79. 01:23:30.505 : en:Глава 12
  80. 01:32:27.375 : en:Глава 13
  81. 01:37:19.166 : en:Глава 14
  82. 01:41:45.056 : en:Глава 15
RAW Paste Data