dirtyharrys

The Highwaymen WEB-DL 720p

Mar 31st, 2019
85
Never
Not a member of Pastebin yet? Sign Up, it unlocks many cool features!
  1. General
  2. Unique ID : 160430177725386258334528318042714873191 (0x78B1BA739A7C19ECF9F374D0BC2B1D67)
  3. Complete name : E:\V0VCVGhlSGlnaHdheW1lbg.mkv
  4. Format : Matroska
  5. Format version : Version 4
  6. File size : 2.00 GiB
  7. Duration : 2 h 12 min
  8. Overall bit rate : 2 166 kb/s
  9. Movie name : The Highwaymen WEB-DL / The Highwaymen WEB-DL
  10. Encoded date : UTC 2019-03-30 07:46:39
  11. Writing application : mkvmerge v30.1.0 ('Forever And More') 32-bit
  12. Writing library : libebml v1.3.6 + libmatroska v1.4.9
  13. Copyright : Movies HDs 2019
  14. ARTIST : HarshLearner
  15.  
  16. Video
  17. ID : 1
  18. Format : AVC
  19. Format/Info : Advanced Video Codec
  20. Format profile : Baseline@L3.1
  21. Format settings : 1 Ref Frames
  22. Format settings, CABAC : No
  23. Format settings, ReFrames : 1 frame
  24. Codec ID : V_MPEG4/ISO/AVC
  25. Duration : 2 h 12 min
  26. Bit rate : 1 400 kb/s
  27. Width : 1 280 pixels
  28. Height : 720 pixels
  29. Display aspect ratio : 16:9
  30. Frame rate mode : Constant
  31. Frame rate : 24.000 FPS
  32. Color space : YUV
  33. Chroma subsampling : 4:2:0
  34. Bit depth : 8 bits
  35. Scan type : Progressive
  36. Bits/(Pixel*Frame) : 0.063
  37. Stream size : 1.29 GiB (64%)
  38. Title : The Highwaymen
  39. Writing library : x264 core 155 r2901 7d0ff22
  40. Default : Yes
  41. Forced : No
  42.  
  43. Audio #1
  44. ID : 2
  45. Format : AC-3
  46. Format/Info : Audio Coding 3
  47. Commercial name : Dolby Digital
  48. Codec ID : A_AC3
  49. Duration : 2 h 12 min
  50. Bit rate mode : Constant
  51. Bit rate : 384 kb/s
  52. Channel(s) : 6 channels
  53. Channel layout : L R C LFE Ls Rs
  54. Sampling rate : 48.0 kHz
  55. Frame rate : 31.250 FPS (1536 SPF)
  56. Bit depth : 16 bits
  57. Compression mode : Lossy
  58. Stream size : 363 MiB (18%)
  59. Language : English
  60. Service kind : Complete Main
  61. Default : No
  62. Forced : No
  63.  
  64. Audio #2
  65. ID : 3
  66. Format : AC-3
  67. Format/Info : Audio Coding 3
  68. Commercial name : Dolby Digital
  69. Codec ID : A_AC3
  70. Duration : 2 h 12 min
  71. Bit rate mode : Constant
  72. Bit rate : 384 kb/s
  73. Channel(s) : 6 channels
  74. Channel layout : L R C LFE Ls Rs
  75. Sampling rate : 48.0 kHz
  76. Frame rate : 31.250 FPS (1536 SPF)
  77. Bit depth : 16 bits
  78. Compression mode : Lossy
  79. Stream size : 363 MiB (18%)
  80. Language : Spanish
  81. Service kind : Complete Main
  82. Default : Yes
  83. Forced : Yes
  84.  
  85. Text #1
  86. ID : 4
  87. Format : UTF-8
  88. Codec ID : S_TEXT/UTF8
  89. Codec ID/Info : UTF-8 Plain Text
  90. Duration : 2 h 0 min
  91. Bit rate : 45 b/s
  92. Count of elements : 1196
  93. Stream size : 40.5 KiB (0%)
  94. Language : English
  95. Default : No
  96. Forced : No
  97.  
  98. Text #2
  99. ID : 5
  100. Format : UTF-8
  101. Codec ID : S_TEXT/UTF8
  102. Codec ID/Info : UTF-8 Plain Text
  103. Duration : 2 h 11 min
  104. Bit rate : 42 b/s
  105. Count of elements : 1320
  106. Stream size : 40.5 KiB (0%)
  107. Language : Spanish
  108. Default : Yes
  109. Forced : Yes
  110.  
  111. Text #3
  112. ID : 6
  113. Format : UTF-8
  114. Codec ID : S_TEXT/UTF8
  115. Codec ID/Info : UTF-8 Plain Text
  116. Duration : 2 h 11 min
  117. Bit rate : 1 b/s
  118. Count of elements : 27
  119. Stream size : 1.05 KiB (0%)
  120. Language : Spanish
  121. Default : No
  122. Forced : No
RAW Paste Data