GrabHD

Untitled

Feb 21st, 2020
106
Never
Not a member of Pastebin yet? Sign Up, it unlocks many cool features!
  1. Общее
  2. Уникальный идентификатор : 227005000773823853780251115254479889367 (0xAAC792A666F422FF9365ADEA43C4A3D7)
  3. Полное имя : War Dogs (2016) WEB-DL 1080p [Open Matte] -BLUEBIRD.mkv
  4. Формат : Matroska
  5. Версия формата : Version 4 / Version 2
  6. Размер файла : 12,2 Гбайт
  7. Продолжительность : 1 ч. 54 м.
  8. Режим общего битрейта : Переменный
  9. Общий поток : 15,2 Мбит/сек
  10. Дата кодирования : UTC 2017-07-09 10:00:41
  11. Программа кодирования : mkvmerge v12.0.0 ('Trust / Lust') 64bit
  12. Библиотека кодирования : libebml v1.3.4 + libmatroska v1.4.5
  13.  
  14. Видео
  15. Идентификатор : 1
  16. Формат : AVC
  17. Формат/Информация : Advanced Video Codec
  18. Профиль формата : High@L4.0
  19. Параметр CABAC формата : Да
  20. Параметр ReFrames формата : 4 кадра
  21. Идентификатор кодека : V_MPEG4/ISO/AVC
  22. Продолжительность : 1 ч. 54 м.
  23. Вид битрейта : Переменный
  24. Битрейт : 9759 Кбит/сек
  25. Максимальный битрейт : 15,0 Мбит/сек
  26. Ширина : 1920 пикселей
  27. Высота : 1080 пикселей
  28. Соотношение сторон : 16:9
  29. Режим частоты кадров : Постоянный
  30. Частота кадров : 23,976 кадра/сек
  31. Цветовое пространство : YUV
  32. Субдискретизация насыщенности : 4:2:0
  33. Битовая глубина : 8 бит
  34. Тип развёртки : Прогрессивная
  35. Бит/(Пиксели*Кадры) : 0.196
  36. Размер потока : 7,80 Гбайт (64%)
  37. Default : Да
  38. Forced : Нет
  39. Основные цвета : BT.709
  40. Характеристики трансфера : BT.709
  41. Коэффициенты матрицы : BT.709
  42.  
  43. Аудио #1
  44. Идентификатор : 2
  45. Формат : AC-3
  46. Формат/Информация : Audio Coding 3
  47. Расширение режима : CM (complete main)
  48. Параметр Endianness формата : Big
  49. Идентификатор кодека : A_AC3
  50. Продолжительность : 1 ч. 54 м.
  51. Вид битрейта : Постоянный
  52. Битрейт : 640 Кбит/сек
  53. Каналы : 6 каналов
  54. Расположение каналов : Front: L C R, Side: L R, LFE
  55. Частота : 48,0 КГц
  56. Битовая глубина : 16 бит
  57. Метод сжатия : С потерями
  58. Размер потока : 524 Мбайт (4%)
  59. Заголовок : Дубляж
  60. Язык : Russian
  61. Default : Да
  62. Forced : Нет
  63.  
  64. Аудио #2
  65. Идентификатор : 3
  66. Формат : DTS
  67. Формат/Информация : Digital Theater Systems
  68. Режим : 16
  69. Параметр Endianness формата : Big
  70. Идентификатор кодека : A_DTS
  71. Продолжительность : 1 ч. 54 м.
  72. Вид битрейта : Постоянный
  73. Битрейт : 1510 Кбит/сек
  74. Каналы : 6 каналов
  75. Расположение каналов : Front: L C R, Side: L R, LFE
  76. Частота : 48,0 КГц
  77. Битовая глубина : 24 бит
  78. Метод сжатия : С потерями
  79. Размер потока : 1,21 Гбайт (10%)
  80. Заголовок : Д. Есарев
  81. Язык : Russian
  82. Default : Нет
  83. Forced : Нет
  84.  
  85. Аудио #3
  86. Идентификатор : 4
  87. Формат : DTS
  88. Формат/Информация : Digital Theater Systems
  89. Режим : 16
  90. Параметр Endianness формата : Big
  91. Идентификатор кодека : A_DTS
  92. Продолжительность : 1 ч. 54 м.
  93. Вид битрейта : Постоянный
  94. Битрейт : 1510 Кбит/сек
  95. Каналы : 6 каналов
  96. Расположение каналов : Front: L C R, Side: L R, LFE
  97. Частота : 48,0 КГц
  98. Битовая глубина : 24 бит
  99. Метод сжатия : С потерями
  100. Размер потока : 1,21 Гбайт (10%)
  101. Заголовок : Ю.Немахов
  102. Язык : Russian
  103. Default : Нет
  104. Forced : Нет
  105.  
  106. Аудио #4
  107. Идентификатор : 5
  108. Формат : DTS
  109. Формат/Информация : Digital Theater Systems
  110. Режим : 16
  111. Параметр Endianness формата : Big
  112. Идентификатор кодека : A_DTS
  113. Продолжительность : 1 ч. 54 м.
  114. Вид битрейта : Постоянный
  115. Битрейт : 1510 Кбит/сек
  116. Каналы : 6 каналов
  117. Расположение каналов : Front: L C R, Side: L R, LFE
  118. Частота : 48,0 КГц
  119. Битовая глубина : 24 бит
  120. Метод сжатия : С потерями
  121. Размер потока : 1,21 Гбайт (10%)
  122. Язык : English
  123. Default : Нет
  124. Forced : Нет
  125.  
  126. Текст #1
  127. Идентификатор : 6
  128. Формат : UTF-8
  129. Идентификатор кодека : S_TEXT/UTF8
  130. Идентификатор кодека/Информация : UTF-8 Plain Text
  131. Язык : Russian
  132. Default : Да
  133. Forced : Нет
  134.  
  135. Текст #2
  136. Идентификатор : 7
  137. Формат : UTF-8
  138. Идентификатор кодека : S_TEXT/UTF8
  139. Идентификатор кодека/Информация : UTF-8 Plain Text
  140. Язык : Russian
  141. Default : Нет
  142. Forced : Нет
  143.  
  144. Текст #3
  145. Идентификатор : 8
  146. Формат : UTF-8
  147. Идентификатор кодека : S_TEXT/UTF8
  148. Идентификатор кодека/Информация : UTF-8 Plain Text
  149. Язык : English
  150. Default : Нет
  151. Forced : Нет
  152.  
  153. Меню
  154. 00:00:00.000 : en:Studio Logo
  155. 00:00:53.000 : en:A Jericho 941 is a very reliable weapon
  156. 00:03:04.000 : en:David decides to change it up
  157. 00:05:31.000 : en:No one cares about old people
  158. 00:08:48.000 : en:No one cares about old people
  159. 00:12:37.000 : en:Crumbs
  160. 00:17:24.000 : en:Trophies to all the Robbie Freidmans of the world
  161. 00:18:32.000 : en:Iz throws a curve ball
  162. 00:23:40.000 : en:3rd date
  163. 00:27:13.000 : en:Iz finds out
  164. 00:35:04.000 : en:Efraim and David take a hands on approach
  165. 00:39:14.000 : en:Gun running
  166. 00:42:38.000 : en:God Bless Dick Cheney's America
  167. 00:49:04.000 : en:Triangle of death
  168. 00:52:59.000 : en:Whole pie
  169. 00:56:56.000 : en:Comicon, but with grenades
  170. 01:02:51.000 : en:AEY goes legit
  171. 01:08:35.000 : en:Lowballed the competition
  172. 01:11:08.000 : en:(Unnamed scene)
  173. 01:14:24.000 : en:Chinese ammunition
  174. 01:20:17.000 : en:(Unnamed scene)
  175. 01:25:36.000 : en:Efraim's greed
  176. 01:28:37.000 : en:Henry's revenge
  177. 01:32:14.000 : en:I'm done with Albania
  178. 01:36:01.000 : en:(Unnamed scene)
  179. 01:39:44.000 : en:The box guy
  180. 01:45:18.000 : en:No more questions
  181. 01:48:28.000 : en:End Credits
RAW Paste Data