SHARE
TWEET

Adventureland.2009.BluRay.1080p.DTS-HD.MA.5.1.AVC.REMUX-FraMeSToR

a guest Jun 18th, 2019 33 Never
Not a member of Pastebin yet? Sign Up, it unlocks many cool features!
  1. General
  2. Complete name                            : Adventureland.2009.BluRay.1080p.DTS-HD.MA.5.1.AVC.REMUX-FraMeSToR.mkv
  3. Format                                   : Matroska
  4. Format version                           : Version 4
  5. File size                                : 27.8 GiB
  6. Duration                                 : 1 h 46 min
  7. Overall bit rate mode                    : Variable
  8. Overall bit rate                         : 37.2 Mb/s
  9. Encoded date                             : UTC 2018-05-31 17:30:51
  10. Writing application                      : mkvmerge v23.0.0 ('The Bride Said No') 64-bit
  11. Writing library                          : libebml v1.3.6 + libmatroska v1.4.9
  12.  
  13. Video
  14. ID                                       : 1
  15. Format                                   : AVC
  16. Format/Info                              : Advanced Video Codec
  17. Format profile                           : High@L4.1
  18. Format settings                          : CABAC / 4 Ref Frames
  19. Format settings, CABAC                   : Yes
  20. Format settings, Reference frames        : 4 frames
  21. Codec ID                                 : V_MPEG4/ISO/AVC
  22. Duration                                 : 1 h 46 min
  23. Bit rate mode                            : Variable
  24. Bit rate                                 : 31.0 Mb/s
  25. Maximum bit rate                         : 33.0 Mb/s
  26. Width                                    : 1 920 pixels
  27. Height                                   : 1 080 pixels
  28. Display aspect ratio                     : 16:9
  29. Frame rate mode                          : Constant
  30. Frame rate                               : 23.976 (24000/1001) FPS
  31. Color space                              : YUV
  32. Chroma subsampling                       : 4:2:0
  33. Bit depth                                : 8 bits
  34. Scan type                                : Progressive
  35. Bits/(Pixel*Frame)                       : 0.624
  36. Stream size                              : 23.2 GiB (83%)
  37. Default                                  : Yes
  38. Forced                                   : No
  39. Color range                              : Limited
  40. Color primaries                          : BT.709
  41. Transfer characteristics                 : BT.709
  42. Matrix coefficients                      : BT.709
  43.  
  44. Audio #1
  45. ID                                       : 2
  46. Format                                   : DTS XLL
  47. Format/Info                              : Digital Theater Systems
  48. Commercial name                          : DTS-HD Master Audio
  49. Codec ID                                 : A_DTS
  50. Duration                                 : 1 h 46 min
  51. Bit rate mode                            : Variable
  52. Bit rate                                 : 3 599 kb/s
  53. Channel(s)                               : 6 channels
  54. Channel layout                           : C L R Ls Rs LFE
  55. Sampling rate                            : 48.0 kHz
  56. Frame rate                               : 93.750 FPS (512 SPF)
  57. Bit depth                                : 24 bits
  58. Compression mode                         : Lossless
  59. Stream size                              : 2.69 GiB (10%)
  60. Title                                    : DTS-HD MA 5.1
  61. Language                                 : English
  62. Default                                  : Yes
  63. Forced                                   : No
  64.  
  65. Audio #2
  66. ID                                       : 3
  67. Format                                   : AC-3
  68. Format/Info                              : Audio Coding 3
  69. Commercial name                          : Dolby Digital
  70. Codec ID                                 : A_AC3
  71. Duration                                 : 1 h 46 min
  72. Bit rate mode                            : Constant
  73. Bit rate                                 : 192 kb/s
  74. Channel(s)                               : 2 channels
  75. Channel layout                           : L R
  76. Sampling rate                            : 48.0 kHz
  77. Frame rate                               : 31.250 FPS (1536 SPF)
  78. Bit depth                                : 16 bits
  79. Compression mode                         : Lossy
  80. Stream size                              : 147 MiB (1%)
  81. Title                                    : Commentary by Greg Mottola and Jessie Eisenberg
  82. Language                                 : English
  83. Service kind                             : Complete Main
  84. Default                                  : No
  85. Forced                                   : No
  86.  
  87. Text #1
  88. ID                                       : 4
  89. Format                                   : PGS
  90. Codec ID                                 : S_HDMV/PGS
  91. Codec ID/Info                            : Picture based subtitle format used on BDs/HD-DVDs
  92. Duration                                 : 1 h 42 min
  93. Bit rate                                 : 42.5 kb/s
  94. Count of elements                        : 2638
  95. Stream size                              : 31.3 MiB (0%)
  96. Title                                    : English
  97. Language                                 : English
  98. Default                                  : No
  99. Forced                                   : No
  100.  
  101. Text #2
  102. ID                                       : 5
  103. Format                                   : PGS
  104. Codec ID                                 : S_HDMV/PGS
  105. Codec ID/Info                            : Picture based subtitle format used on BDs/HD-DVDs
  106. Duration                                 : 1 h 43 min
  107. Bit rate                                 : 50.7 kb/s
  108. Count of elements                        : 3346
  109. Stream size                              : 37.7 MiB (0%)
  110. Title                                    : English (SDH)
  111. Language                                 : English
  112. Default                                  : No
  113. Forced                                   : No
  114.  
  115. Text #3
  116. ID                                       : 6
  117. Format                                   : PGS
  118. Codec ID                                 : S_HDMV/PGS
  119. Codec ID/Info                            : Picture based subtitle format used on BDs/HD-DVDs
  120. Duration                                 : 1 h 43 min
  121. Bit rate                                 : 24.0 kb/s
  122. Count of elements                        : 2660
  123. Stream size                              : 17.7 MiB (0%)
  124. Title                                    : Arabic
  125. Language                                 : Arabic
  126. Default                                  : No
  127. Forced                                   : No
  128.  
  129. Text #4
  130. ID                                       : 7
  131. Format                                   : PGS
  132. Codec ID                                 : S_HDMV/PGS
  133. Codec ID/Info                            : Picture based subtitle format used on BDs/HD-DVDs
  134. Duration                                 : 1 h 42 min
  135. Bit rate                                 : 38.9 kb/s
  136. Count of elements                        : 2654
  137. Stream size                              : 28.6 MiB (0%)
  138. Title                                    : Bulgarian
  139. Language                                 : Bulgarian
  140. Default                                  : No
  141. Forced                                   : No
  142.  
  143. Text #5
  144. ID                                       : 8
  145. Format                                   : PGS
  146. Codec ID                                 : S_HDMV/PGS
  147. Codec ID/Info                            : Picture based subtitle format used on BDs/HD-DVDs
  148. Duration                                 : 1 h 42 min
  149. Bit rate                                 : 36.7 kb/s
  150. Count of elements                        : 2654
  151. Stream size                              : 27.0 MiB (0%)
  152. Title                                    : Croatian
  153. Language                                 : Croatian
  154. Default                                  : No
  155. Forced                                   : No
  156.  
  157. Text #6
  158. ID                                       : 9
  159. Format                                   : PGS
  160. Codec ID                                 : S_HDMV/PGS
  161. Codec ID/Info                            : Picture based subtitle format used on BDs/HD-DVDs
  162. Duration                                 : 1 h 45 min
  163. Bit rate                                 : 36.2 kb/s
  164. Count of elements                        : 2660
  165. Stream size                              : 27.4 MiB (0%)
  166. Title                                    : Czech
  167. Language                                 : Czech
  168. Default                                  : No
  169. Forced                                   : No
  170.  
  171. Text #7
  172. ID                                       : 10
  173. Format                                   : PGS
  174. Codec ID                                 : S_HDMV/PGS
  175. Codec ID/Info                            : Picture based subtitle format used on BDs/HD-DVDs
  176. Duration                                 : 1 h 42 min
  177. Bit rate                                 : 32.4 kb/s
  178. Count of elements                        : 2158
  179. Stream size                              : 23.9 MiB (0%)
  180. Title                                    : Dutch
  181. Language                                 : Dutch
  182. Default                                  : No
  183. Forced                                   : No
  184.  
  185. Text #8
  186. ID                                       : 11
  187. Format                                   : PGS
  188. Codec ID                                 : S_HDMV/PGS
  189. Codec ID/Info                            : Picture based subtitle format used on BDs/HD-DVDs
  190. Duration                                 : 1 h 43 min
  191. Bit rate                                 : 40.9 kb/s
  192. Count of elements                        : 2656
  193. Stream size                              : 30.2 MiB (0%)
  194. Title                                    : French
  195. Language                                 : French
  196. Default                                  : No
  197. Forced                                   : No
  198.  
  199. Text #9
  200. ID                                       : 12
  201. Format                                   : PGS
  202. Codec ID                                 : S_HDMV/PGS
  203. Codec ID/Info                            : Picture based subtitle format used on BDs/HD-DVDs
  204. Duration                                 : 1 h 42 min
  205. Bit rate                                 : 41.6 kb/s
  206. Count of elements                        : 2650
  207. Stream size                              : 30.6 MiB (0%)
  208. Title                                    : German
  209. Language                                 : German
  210. Default                                  : No
  211. Forced                                   : No
  212.  
  213. Text #10
  214. ID                                       : 13
  215. Format                                   : PGS
  216. Codec ID                                 : S_HDMV/PGS
  217. Codec ID/Info                            : Picture based subtitle format used on BDs/HD-DVDs
  218. Duration                                 : 1 h 45 min
  219. Bit rate                                 : 38.4 kb/s
  220. Count of elements                        : 2656
  221. Stream size                              : 29.0 MiB (0%)
  222. Title                                    : Greek
  223. Language                                 : Greek
  224. Default                                  : No
  225. Forced                                   : No
  226.  
  227. Text #11
  228. ID                                       : 14
  229. Format                                   : PGS
  230. Codec ID                                 : S_HDMV/PGS
  231. Codec ID/Info                            : Picture based subtitle format used on BDs/HD-DVDs
  232. Duration                                 : 1 h 42 min
  233. Bit rate                                 : 28.3 kb/s
  234. Count of elements                        : 2656
  235. Stream size                              : 20.8 MiB (0%)
  236. Title                                    : Hebrew
  237. Language                                 : Hebrew
  238. Default                                  : No
  239. Forced                                   : No
  240.  
  241. Text #12
  242. ID                                       : 15
  243. Format                                   : PGS
  244. Codec ID                                 : S_HDMV/PGS
  245. Codec ID/Info                            : Picture based subtitle format used on BDs/HD-DVDs
  246. Duration                                 : 1 h 42 min
  247. Bit rate                                 : 30.2 kb/s
  248. Count of elements                        : 2654
  249. Stream size                              : 22.3 MiB (0%)
  250. Title                                    : Hindi
  251. Language                                 : Hindi
  252. Default                                  : No
  253. Forced                                   : No
  254.  
  255. Text #13
  256. ID                                       : 16
  257. Format                                   : PGS
  258. Codec ID                                 : S_HDMV/PGS
  259. Codec ID/Info                            : Picture based subtitle format used on BDs/HD-DVDs
  260. Duration                                 : 1 h 43 min
  261. Bit rate                                 : 33.4 kb/s
  262. Count of elements                        : 2568
  263. Stream size                              : 24.7 MiB (0%)
  264. Title                                    : Hungarian
  265. Language                                 : Hungarian
  266. Default                                  : No
  267. Forced                                   : No
  268.  
  269. Text #14
  270. ID                                       : 17
  271. Format                                   : PGS
  272. Codec ID                                 : S_HDMV/PGS
  273. Codec ID/Info                            : Picture based subtitle format used on BDs/HD-DVDs
  274. Duration                                 : 1 h 42 min
  275. Bit rate                                 : 39.1 kb/s
  276. Count of elements                        : 2654
  277. Stream size                              : 28.8 MiB (0%)
  278. Title                                    : Italian
  279. Language                                 : Italian
  280. Default                                  : No
  281. Forced                                   : No
  282.  
  283. Text #15
  284. ID                                       : 18
  285. Format                                   : PGS
  286. Codec ID                                 : S_HDMV/PGS
  287. Codec ID/Info                            : Picture based subtitle format used on BDs/HD-DVDs
  288. Duration                                 : 1 h 42 min
  289. Bit rate                                 : 35.3 kb/s
  290. Count of elements                        : 2654
  291. Stream size                              : 26.0 MiB (0%)
  292. Title                                    : Polish
  293. Language                                 : Polish
  294. Default                                  : No
  295. Forced                                   : No
  296.  
  297. Text #16
  298. ID                                       : 19
  299. Format                                   : PGS
  300. Codec ID                                 : S_HDMV/PGS
  301. Codec ID/Info                            : Picture based subtitle format used on BDs/HD-DVDs
  302. Duration                                 : 1 h 45 min
  303. Bit rate                                 : 39.9 kb/s
  304. Count of elements                        : 2658
  305. Stream size                              : 30.2 MiB (0%)
  306. Title                                    : Portuguese
  307. Language                                 : Portuguese
  308. Default                                  : No
  309. Forced                                   : No
  310.  
  311. Text #17
  312. ID                                       : 20
  313. Format                                   : PGS
  314. Codec ID                                 : S_HDMV/PGS
  315. Codec ID/Info                            : Picture based subtitle format used on BDs/HD-DVDs
  316. Duration                                 : 1 h 42 min
  317. Bit rate                                 : 36.6 kb/s
  318. Count of elements                        : 2652
  319. Stream size                              : 27.0 MiB (0%)
  320. Title                                    : Romanian
  321. Language                                 : Romanian
  322. Default                                  : No
  323. Forced                                   : No
  324.  
  325. Text #18
  326. ID                                       : 21
  327. Format                                   : PGS
  328. Codec ID                                 : S_HDMV/PGS
  329. Codec ID/Info                            : Picture based subtitle format used on BDs/HD-DVDs
  330. Duration                                 : 1 h 43 min
  331. Bit rate                                 : 40.2 kb/s
  332. Count of elements                        : 2658
  333. Stream size                              : 29.7 MiB (0%)
  334. Title                                    : Russian
  335. Language                                 : Russian
  336. Default                                  : No
  337. Forced                                   : No
  338.  
  339. Text #19
  340. ID                                       : 22
  341. Format                                   : PGS
  342. Codec ID                                 : S_HDMV/PGS
  343. Codec ID/Info                            : Picture based subtitle format used on BDs/HD-DVDs
  344. Duration                                 : 1 h 42 min
  345. Bit rate                                 : 38.2 kb/s
  346. Count of elements                        : 2654
  347. Stream size                              : 28.1 MiB (0%)
  348. Title                                    : Serbian
  349. Language                                 : Serbian
  350. Default                                  : No
  351. Forced                                   : No
  352.  
  353. Text #20
  354. ID                                       : 23
  355. Format                                   : PGS
  356. Codec ID                                 : S_HDMV/PGS
  357. Codec ID/Info                            : Picture based subtitle format used on BDs/HD-DVDs
  358. Duration                                 : 1 h 43 min
  359. Bit rate                                 : 41.3 kb/s
  360. Count of elements                        : 2658
  361. Stream size                              : 30.5 MiB (0%)
  362. Title                                    : Slovak
  363. Language                                 : Slovak
  364. Default                                  : No
  365. Forced                                   : No
  366.  
  367. Text #21
  368. ID                                       : 24
  369. Format                                   : PGS
  370. Codec ID                                 : S_HDMV/PGS
  371. Codec ID/Info                            : Picture based subtitle format used on BDs/HD-DVDs
  372. Duration                                 : 1 h 42 min
  373. Bit rate                                 : 37.5 kb/s
  374. Count of elements                        : 2652
  375. Stream size                              : 27.6 MiB (0%)
  376. Title                                    : Slovenian
  377. Language                                 : Slovenian
  378. Default                                  : No
  379. Forced                                   : No
  380.  
  381. Text #22
  382. ID                                       : 25
  383. Format                                   : PGS
  384. Codec ID                                 : S_HDMV/PGS
  385. Codec ID/Info                            : Picture based subtitle format used on BDs/HD-DVDs
  386. Duration                                 : 1 h 42 min
  387. Bit rate                                 : 37.8 kb/s
  388. Count of elements                        : 2654
  389. Stream size                              : 27.8 MiB (0%)
  390. Title                                    : Spanish (Castilian)
  391. Language                                 : Spanish
  392. Default                                  : No
  393. Forced                                   : No
  394.  
  395. Text #23
  396. ID                                       : 26
  397. Format                                   : PGS
  398. Codec ID                                 : S_HDMV/PGS
  399. Codec ID/Info                            : Picture based subtitle format used on BDs/HD-DVDs
  400. Duration                                 : 1 h 42 min
  401. Bit rate                                 : 39.3 kb/s
  402. Count of elements                        : 2652
  403. Stream size                              : 28.9 MiB (0%)
  404. Title                                    : Turkish
  405. Language                                 : Turkish
  406. Default                                  : No
  407. Forced                                   : No
  408.  
  409. Text #24
  410. ID                                       : 27
  411. Format                                   : PGS
  412. Codec ID                                 : S_HDMV/PGS
  413. Codec ID/Info                            : Picture based subtitle format used on BDs/HD-DVDs
  414. Duration                                 : 1 h 43 min
  415. Bit rate                                 : 41.2 kb/s
  416. Count of elements                        : 2660
  417. Stream size                              : 30.4 MiB (0%)
  418. Title                                    : Ukrainian
  419. Language                                 : Ukrainian
  420. Default                                  : No
  421. Forced                                   : No
  422.  
  423. Text #25
  424. ID                                       : 28
  425. Format                                   : PGS
  426. Codec ID                                 : S_HDMV/PGS
  427. Codec ID/Info                            : Picture based subtitle format used on BDs/HD-DVDs
  428. Duration                                 : 1 h 46 min
  429. Bit rate                                 : 41.9 kb/s
  430. Count of elements                        : 4270
  431. Stream size                              : 31.9 MiB (0%)
  432. Title                                    : Arabic (Commentary)
  433. Language                                 : Arabic
  434. Default                                  : No
  435. Forced                                   : No
  436.  
  437. Text #26
  438. ID                                       : 29
  439. Format                                   : PGS
  440. Codec ID                                 : S_HDMV/PGS
  441. Codec ID/Info                            : Picture based subtitle format used on BDs/HD-DVDs
  442. Duration                                 : 1 h 46 min
  443. Bit rate                                 : 75.0 kb/s
  444. Count of elements                        : 4270
  445. Stream size                              : 57.2 MiB (0%)
  446. Title                                    : Bulgarian (Commentary)
  447. Language                                 : Bulgarian
  448. Default                                  : No
  449. Forced                                   : No
  450.  
  451. Text #27
  452. ID                                       : 30
  453. Format                                   : PGS
  454. Codec ID                                 : S_HDMV/PGS
  455. Codec ID/Info                            : Picture based subtitle format used on BDs/HD-DVDs
  456. Duration                                 : 1 h 46 min
  457. Bit rate                                 : 72.8 kb/s
  458. Count of elements                        : 4270
  459. Stream size                              : 55.4 MiB (0%)
  460. Title                                    : Croatian (Commentary)
  461. Language                                 : Croatian
  462. Default                                  : No
  463. Forced                                   : No
  464.  
  465. Text #28
  466. ID                                       : 31
  467. Format                                   : PGS
  468. Codec ID                                 : S_HDMV/PGS
  469. Codec ID/Info                            : Picture based subtitle format used on BDs/HD-DVDs
  470. Duration                                 : 1 h 46 min
  471. Bit rate                                 : 74.0 kb/s
  472. Count of elements                        : 4270
  473. Stream size                              : 56.3 MiB (0%)
  474. Title                                    : Czech (Commentary)
  475. Language                                 : Czech
  476. Default                                  : No
  477. Forced                                   : No
  478.  
  479. Text #29
  480. ID                                       : 32
  481. Format                                   : PGS
  482. Codec ID                                 : S_HDMV/PGS
  483. Codec ID/Info                            : Picture based subtitle format used on BDs/HD-DVDs
  484. Duration                                 : 1 h 46 min
  485. Bit rate                                 : 60.6 kb/s
  486. Count of elements                        : 2852
  487. Stream size                              : 46.1 MiB (0%)
  488. Title                                    : Dutch (Commentary)
  489. Language                                 : Dutch
  490. Default                                  : No
  491. Forced                                   : No
  492.  
  493. Text #30
  494. ID                                       : 33
  495. Format                                   : PGS
  496. Codec ID                                 : S_HDMV/PGS
  497. Codec ID/Info                            : Picture based subtitle format used on BDs/HD-DVDs
  498. Duration                                 : 1 h 46 min
  499. Bit rate                                 : 66.1 kb/s
  500. Count of elements                        : 4270
  501. Stream size                              : 50.3 MiB (0%)
  502. Title                                    : French (Commentary)
  503. Language                                 : French
  504. Default                                  : No
  505. Forced                                   : No
  506.  
  507. Text #31
  508. ID                                       : 34
  509. Format                                   : PGS
  510. Codec ID                                 : S_HDMV/PGS
  511. Codec ID/Info                            : Picture based subtitle format used on BDs/HD-DVDs
  512. Duration                                 : 1 h 46 min
  513. Bit rate                                 : 82.0 kb/s
  514. Count of elements                        : 4270
  515. Stream size                              : 62.4 MiB (0%)
  516. Title                                    : German (Commentary)
  517. Language                                 : German
  518. Default                                  : No
  519. Forced                                   : No
  520.  
  521. Text #32
  522. ID                                       : 35
  523. Format                                   : PGS
  524. Codec ID                                 : S_HDMV/PGS
  525. Codec ID/Info                            : Picture based subtitle format used on BDs/HD-DVDs
  526. Duration                                 : 1 h 46 min
  527. Bit rate                                 : 74.6 kb/s
  528. Count of elements                        : 4270
  529. Stream size                              : 56.8 MiB (0%)
  530. Title                                    : Greek (Commentary)
  531. Language                                 : Greek
  532. Default                                  : No
  533. Forced                                   : No
  534.  
  535. Text #33
  536. ID                                       : 36
  537. Format                                   : PGS
  538. Codec ID                                 : S_HDMV/PGS
  539. Codec ID/Info                            : Picture based subtitle format used on BDs/HD-DVDs
  540. Duration                                 : 1 h 46 min
  541. Bit rate                                 : 50.8 kb/s
  542. Count of elements                        : 4270
  543. Stream size                              : 38.7 MiB (0%)
  544. Title                                    : Hebrew (Commentary)
  545. Language                                 : Hebrew
  546. Default                                  : No
  547. Forced                                   : No
  548.  
  549. Text #34
  550. ID                                       : 37
  551. Format                                   : PGS
  552. Codec ID                                 : S_HDMV/PGS
  553. Codec ID/Info                            : Picture based subtitle format used on BDs/HD-DVDs
  554. Duration                                 : 1 h 46 min
  555. Bit rate                                 : 72.8 kb/s
  556. Count of elements                        : 4264
  557. Stream size                              : 55.4 MiB (0%)
  558. Title                                    : Hungarian (Commentary)
  559. Language                                 : Hungarian
  560. Default                                  : No
  561. Forced                                   : No
  562.  
  563. Text #35
  564. ID                                       : 38
  565. Format                                   : PGS
  566. Codec ID                                 : S_HDMV/PGS
  567. Codec ID/Info                            : Picture based subtitle format used on BDs/HD-DVDs
  568. Duration                                 : 1 h 46 min
  569. Bit rate                                 : 71.5 kb/s
  570. Count of elements                        : 4270
  571. Stream size                              : 54.5 MiB (0%)
  572. Title                                    : Italian (Commentary)
  573. Language                                 : Italian
  574. Default                                  : No
  575. Forced                                   : No
  576.  
  577. Text #36
  578. ID                                       : 39
  579. Format                                   : PGS
  580. Codec ID                                 : S_HDMV/PGS
  581. Codec ID/Info                            : Picture based subtitle format used on BDs/HD-DVDs
  582. Duration                                 : 1 h 46 min
  583. Bit rate                                 : 74.4 kb/s
  584. Count of elements                        : 4270
  585. Stream size                              : 56.7 MiB (0%)
  586. Title                                    : Polish (Commentary)
  587. Language                                 : Polish
  588. Default                                  : No
  589. Forced                                   : No
  590.  
  591. Text #37
  592. ID                                       : 40
  593. Format                                   : PGS
  594. Codec ID                                 : S_HDMV/PGS
  595. Codec ID/Info                            : Picture based subtitle format used on BDs/HD-DVDs
  596. Duration                                 : 1 h 46 min
  597. Bit rate                                 : 79.1 kb/s
  598. Count of elements                        : 4270
  599. Stream size                              : 60.2 MiB (0%)
  600. Title                                    : Portuguese (Commentary)
  601. Language                                 : Portuguese
  602. Default                                  : No
  603. Forced                                   : No
  604.  
  605. Text #38
  606. ID                                       : 41
  607. Format                                   : PGS
  608. Codec ID                                 : S_HDMV/PGS
  609. Codec ID/Info                            : Picture based subtitle format used on BDs/HD-DVDs
  610. Duration                                 : 1 h 46 min
  611. Bit rate                                 : 65.4 kb/s
  612. Count of elements                        : 4270
  613. Stream size                              : 49.8 MiB (0%)
  614. Title                                    : Romanian (Commentary)
  615. Language                                 : Romanian
  616. Default                                  : No
  617. Forced                                   : No
  618.  
  619. Text #39
  620. ID                                       : 42
  621. Format                                   : PGS
  622. Codec ID                                 : S_HDMV/PGS
  623. Codec ID/Info                            : Picture based subtitle format used on BDs/HD-DVDs
  624. Duration                                 : 1 h 46 min
  625. Bit rate                                 : 80.1 kb/s
  626. Count of elements                        : 4270
  627. Stream size                              : 61.0 MiB (0%)
  628. Title                                    : Russian (Commentary)
  629. Language                                 : Russian
  630. Default                                  : No
  631. Forced                                   : No
  632.  
  633. Text #40
  634. ID                                       : 43
  635. Format                                   : PGS
  636. Codec ID                                 : S_HDMV/PGS
  637. Codec ID/Info                            : Picture based subtitle format used on BDs/HD-DVDs
  638. Duration                                 : 1 h 46 min
  639. Bit rate                                 : 75.1 kb/s
  640. Count of elements                        : 4270
  641. Stream size                              : 57.2 MiB (0%)
  642. Title                                    : Serbian (Commentary)
  643. Language                                 : Serbian
  644. Default                                  : No
  645. Forced                                   : No
  646.  
  647. Text #41
  648. ID                                       : 44
  649. Format                                   : PGS
  650. Codec ID                                 : S_HDMV/PGS
  651. Codec ID/Info                            : Picture based subtitle format used on BDs/HD-DVDs
  652. Duration                                 : 1 h 46 min
  653. Bit rate                                 : 81.3 kb/s
  654. Count of elements                        : 4270
  655. Stream size                              : 61.9 MiB (0%)
  656. Title                                    : Slovak (Commentary)
  657. Language                                 : Slovak
  658. Default                                  : No
  659. Forced                                   : No
  660.  
  661. Text #42
  662. ID                                       : 45
  663. Format                                   : PGS
  664. Codec ID                                 : S_HDMV/PGS
  665. Codec ID/Info                            : Picture based subtitle format used on BDs/HD-DVDs
  666. Duration                                 : 1 h 46 min
  667. Bit rate                                 : 69.8 kb/s
  668. Count of elements                        : 4270
  669. Stream size                              : 53.2 MiB (0%)
  670. Title                                    : Slovenian (Commentary)
  671. Language                                 : Slovenian
  672. Default                                  : No
  673. Forced                                   : No
  674.  
  675. Text #43
  676. ID                                       : 46
  677. Format                                   : PGS
  678. Codec ID                                 : S_HDMV/PGS
  679. Codec ID/Info                            : Picture based subtitle format used on BDs/HD-DVDs
  680. Duration                                 : 1 h 46 min
  681. Bit rate                                 : 73.8 kb/s
  682. Count of elements                        : 4270
  683. Stream size                              : 56.2 MiB (0%)
  684. Title                                    : Spanish (Castilian) (Commentary)
  685. Language                                 : Spanish
  686. Default                                  : No
  687. Forced                                   : No
  688.  
  689. Text #44
  690. ID                                       : 47
  691. Format                                   : PGS
  692. Codec ID                                 : S_HDMV/PGS
  693. Codec ID/Info                            : Picture based subtitle format used on BDs/HD-DVDs
  694. Duration                                 : 1 h 46 min
  695. Bit rate                                 : 78.3 kb/s
  696. Count of elements                        : 4270
  697. Stream size                              : 59.6 MiB (0%)
  698. Title                                    : Turkish (Commentary)
  699. Language                                 : Turkish
  700. Default                                  : No
  701. Forced                                   : No
  702.  
  703. Text #45
  704. ID                                       : 48
  705. Format                                   : PGS
  706. Codec ID                                 : S_HDMV/PGS
  707. Codec ID/Info                            : Picture based subtitle format used on BDs/HD-DVDs
  708. Duration                                 : 1 h 46 min
  709. Bit rate                                 : 83.8 kb/s
  710. Count of elements                        : 4270
  711. Stream size                              : 63.8 MiB (0%)
  712. Title                                    : Ukrainian (Commentary)
  713. Language                                 : Ukrainian
  714. Default                                  : No
  715. Forced                                   : No
  716.  
  717. Menu
  718. 00:00:00.000                             : en:Happy Graduation
  719. 00:05:05.305                             : en:You Look Like a Games Guy
  720. 00:11:01.661                             : en:"Modern Love" - David Bowie
  721. 00:13:48.327                             : en:"Rock Me Amadeus" - Falco
  722. 00:17:08.569                             : en:"Don't Want to Know If You Are Lonely" - Hsker D
  723. 00:20:42.658                             : en:Em's Party
  724. 00:23:48.093                             : en:"Looking for a Kiss" - New York Dolls
  725. 00:26:14.573                             : en:"I'm in Love with a Girl" - Big Star
  726. 00:29:18.006                             : en:Lisa P Is Back
  727. 00:29:56.795                             : en:"Rock Me Amadeus" - Falco
  728. 00:33:39.517                             : en:"Pale Blue Eyes" - The Velvet Underground
  729. 00:35:50.565                             : en:"Rock Me Amadeus" - Falco
  730. 00:38:28.306                             : en:"Don't Dream It's Over" - Crowded House
  731. 00:41:45.503                             : en:"Satellite of Love" - Lou Reed
  732. 00:45:24.722                             : en:Taking Things Slow
  733. 00:46:55.104                             : en:Meeting Needs
  734. 00:48:38.457                             : en:"Your Love" - Outfield
  735. 00:49:15.536                             : en:Sailboats and Speedboats
  736. 00:50:09.882                             : en:"Just Like Heavan" - The Cure
  737. 00:56:16.123                             : en:Em-Appreciation
  738. 01:05:15.954                             : en:The Secret's Out
  739. 01:07:29.963                             : en:"Rock Me Amadeus" - Falco
  740. 01:13:31.032                             : en:Mostly You Just Make Me Mad
  741. 01:20:42.838                             : en:The Last Weekend
  742. 01:22:18.934                             : en:"Unsatisfied" - The Replacements
  743. 01:24:25.477                             : en:"Don't Change" - Inxs
  744. 01:32:33.548                             : en:"Adventureland Theme Song" - Brian Kenney & Ian Berkowitz
  745. 01:39:52.987                             : en:The Path of the Virus
  746. 01:43:33.249                             : en:Mentally Divergent
  747. 01:43:59.525                             : en:Seriously Crazy
RAW Paste Data
We use cookies for various purposes including analytics. By continuing to use Pastebin, you agree to our use of cookies as described in the Cookies Policy. OK, I Understand
 
Top