Guest User

Untitled

a guest
Oct 11th, 2019
5,637
Never
Not a member of Pastebin yet? Sign Up, it unlocks many cool features!
  1. General
  2. Unique ID : 64921718337249487358962213503997043863 (0x30D777D7EFB92908D45D4004910BE497)
  3. Complete name : Little.Monsters.2019.1080p.HULU.WEB-DL.DDP5.1.H.264-NTG
  4. Format : Matroska
  5. Format version : Version 4
  6. File size : 3.00 GiB
  7. Duration : 1 h 33 min
  8. Overall bit rate : 4 576 kb/s
  9. Encoded date : UTC 2019-10-11 04:19:31
  10. Writing application : mkvmerge v21.0.0 ('Tardigrades Will Inherit The Earth') 64-bit
  11. Writing library : libebml v1.3.5 + libmatroska v1.4.8
  12.  
  13. Video
  14. ID : 1
  15. Format : AVC
  16. Format/Info : Advanced Video Codec
  17. Format profile : High@L4
  18. Format settings : CABAC / 4 Ref Frames
  19. Format settings, CABAC : Yes
  20. Format settings, Reference frames : 4 frames
  21. Codec ID : V_MPEG4/ISO/AVC
  22. Duration : 1 h 33 min
  23. Bit rate : 4 318 kb/s
  24. Width : 1 920 pixels
  25. Height : 1 080 pixels
  26. Display aspect ratio : 16:9
  27. Frame rate mode : Constant
  28. Frame rate : 24.000 FPS
  29. Color space : YUV
  30. Chroma subsampling : 4:2:0
  31. Bit depth : 8 bits
  32. Scan type : Progressive
  33. Bits/(Pixel*Frame) : 0.087
  34. Stream size : 2.83 GiB (94%)
  35. Default : Yes
  36. Forced : No
  37.  
  38. Audio
  39. ID : 2
  40. Format : E-AC-3
  41. Format/Info : Enhanced AC-3
  42. Commercial name : Dolby Digital Plus
  43. Codec ID : A_EAC3
  44. Duration : 1 h 33 min
  45. Bit rate mode : Constant
  46. Bit rate : 256 kb/s
  47. Channel(s) : 6 channels
  48. Channel layout : L R C LFE Ls Rs
  49. Sampling rate : 48.0 kHz
  50. Frame rate : 31.250 FPS (1536 SPF)
  51. Compression mode : Lossy
  52. Stream size : 172 MiB (6%)
  53. Language : English
  54. Service kind : Complete Main
  55. Default : Yes
  56. Forced : No
  57.  
  58. Text #1
  59. ID : 3
  60. Format : UTF-8
  61. Codec ID : S_TEXT/UTF8
  62. Codec ID/Info : UTF-8 Plain Text
  63. Duration : 1 h 33 min
  64. Bit rate : 90 b/s
  65. Count of elements : 1820
  66. Stream size : 61.8 KiB (0%)
  67. Language : English
  68. Default : No
  69. Forced : No
  70.  
  71. Text #2
  72. ID : 4
  73. Format : UTF-8
  74. Codec ID : S_TEXT/UTF8
  75. Codec ID/Info : UTF-8 Plain Text
  76. Duration : 1 h 33 min
  77. Bit rate : 96 b/s
  78. Count of elements : 1879
  79. Stream size : 66.2 KiB (0%)
  80. Language : Spanish
  81. Default : No
  82. Forced : No
RAW Paste Data