SHARE
TWEET

Untitled

a guest Mar 29th, 2012 19 Never
Not a member of Pastebin yet? Sign Up, it unlocks many cool features!
  1. General
  2. Format                                   : MPEG-4
  3. Format profile                           : Base Media
  4. Codec ID                                 : isom
  5. File size                                : 145 MiB
  6. Duration                                 : 22mn 20s
  7. Overall bit rate                         : 906 Kbps
  8. Writing application                      : Lavf54.0.100
  9.  
  10. Video
  11. ID                                       : 1
  12. Format                                   : AVC
  13. Format/Info                              : Advanced Video Codec
  14. Format profile                           : High@L3.1
  15. Format settings, CABAC                   : Yes
  16. Format settings, ReFrames                : 10 frames
  17. Codec ID                                 : avc1
  18. Codec ID/Info                            : Advanced Video Coding
  19. Duration                                 : 22mn 20s
  20. Bit rate                                 : 734 Kbps
  21. Width                                    : 1 280 pixels
  22. Height                                   : 720 pixels
  23. Display aspect ratio                     : 16:9
  24. Frame rate mode                          : Constant
  25. Frame rate                               : 23.976 fps
  26. Color space                              : YUV
  27. Chroma subsampling                       : 4:2:0
  28. Bit depth                                : 8 bits
  29. Scan type                                : Progressive
  30. Bits/(Pixel*Frame)                       : 0.033
  31. Stream size                              : 117 MiB (81%)
  32. Writing library                          : x264 core 120 r2146 bcd41db
  33. Encoding settings                        : cabac=1 / ref=10 / deblock=1:1:1 / analyse=0x3:0x113 / me=umh / subme=8 / psy=1 / psy_rd=0.40:0.00 / mixed_ref=1 / me_range=16 / chroma_me=1 / trellis=1 / 8x8dct=1 / cqm=0 / deadzone=21,11 / fast_pskip=1 / chroma_qp_offset=-2 / threads=8 / sliced_threads=0 / nr=0 / decimate=1 / interlaced=0 / bluray_compat=0 / constrained_intra=0 / bframes=5 / b_pyramid=2 / b_adapt=2 / b_bias=0 / direct=3 / weightb=1 / open_gop=0 / weightp=2 / keyint=250 / keyint_min=23 / scenecut=40 / intra_refresh=0 / rc_lookahead=50 / rc=crf / mbtree=1 / crf=21.0 / qcomp=0.60 / qpmin=0 / qpmax=69 / qpstep=4 / ip_ratio=1.40 / aq=1:0.60
  34.  
  35. Audio
  36. ID                                       : 2
  37. Format                                   : AAC
  38. Format/Info                              : Advanced Audio Codec
  39. Format profile                           : LC
  40. Codec ID                                 : 40
  41. Duration                                 : 22mn 19s
  42. Bit rate mode                            : Constant
  43. Bit rate                                 : 165 Kbps
  44. Channel(s)                               : 2 channels
  45. Channel positions                        : Front: L R
  46. Sampling rate                            : 48.0 KHz
  47. Compression mode                         : Lossy
  48. Delay relative to video                  : -2s 2ms
  49. Stream size                              : 26.4 MiB (18%)
RAW Paste Data
We use cookies for various purposes including analytics. By continuing to use Pastebin, you agree to our use of cookies as described in the Cookies Policy. OK, I Understand
 
Top