SHARE
TWEET

Mi Obra Maestra BluRay 720p

dirtyharrys Mar 24th, 2019 77 Never
Not a member of Pastebin yet? Sign Up, it unlocks many cool features!
  1. General
  2. Unique ID                   : 70996912436868117225670285132357094460 (0x35698209CE363CEC20C6D558AE62CC3C)
  3. Complete name               : E:\QlJSTWlPYnJhTWFlc3RyYQ.mkv
  4. Format                      : Matroska
  5. Format version              : Version 4
  6. File size                   : 1.57 GiB
  7. Duration                    : 1 h 44 min
  8. Overall bit rate            : 2 147 kb/s
  9. Movie name                  : Mi Obra Maestra BR-RIP / Mi Obra Maestra BR-RIP
  10. Encoded date                : UTC 2019-03-21 07:04:17
  11. Writing application         : mkvmerge v30.1.0 ('Forever And More') 32-bit
  12. Writing library             : libebml v1.3.6 + libmatroska v1.4.9
  13. Copyright                   : Movies HDs 2019
  14. ARTIST                      : HarshLearner
  15.  
  16. Video
  17. ID                          : 1
  18. Format                      : AVC
  19. Format/Info                 : Advanced Video Codec
  20. Format profile              : Baseline@L3.1
  21. Format settings             : 1 Ref Frames
  22. Format settings, CABAC      : No
  23. Format settings, ReFrames   : 1 frame
  24. Codec ID                    : V_MPEG4/ISO/AVC
  25. Duration                    : 1 h 44 min
  26. Bit rate                    : 1 500 kb/s
  27. Width                       : 1 280 pixels
  28. Height                      : 720 pixels
  29. Display aspect ratio        : 16:9
  30. Frame rate mode             : Constant
  31. Frame rate                  : 24.000 FPS
  32. Color space                 : YUV
  33. Chroma subsampling          : 4:2:0
  34. Bit depth                   : 8 bits
  35. Scan type                   : Progressive
  36. Bits/(Pixel*Frame)          : 0.068
  37. Stream size                 : 1.10 GiB (70%)
  38. Title                       : Mi Obra Maestra
  39. Writing library             : x264 core 155 r2901 7d0ff22
  40. Default                     : Yes
  41. Forced                      : No
  42.  
  43. Audio
  44. ID                          : 2
  45. Format                      : AC-3
  46. Format/Info                 : Audio Coding 3
  47. Commercial name             : Dolby Digital
  48. Codec ID                    : A_AC3
  49. Duration                    : 1 h 44 min
  50. Bit rate mode               : Constant
  51. Bit rate                    : 640 kb/s
  52. Channel(s)                  : 6 channels
  53. Channel layout              : L R C LFE Ls Rs
  54. Sampling rate               : 48.0 kHz
  55. Frame rate                  : 31.250 FPS (1536 SPF)
  56. Bit depth                   : 16 bits
  57. Compression mode            : Lossy
  58. Stream size                 : 479 MiB (30%)
  59. Language                    : Spanish
  60. Service kind                : Complete Main
  61. Default                     : Yes
  62. Forced                      : Yes
  63.  
  64. Menu
  65. 00:00:00.000                : :Chapter 1
  66. 00:07:58.875                : :Chapter 2
  67. 00:16:10.083                : :Chapter 3
  68. 00:24:22.667                : :Chapter 4
  69. 00:30:54.750                : :Chapter 5
  70. 00:39:39.708                : :Chapter 6
  71. 00:48:34.000                : :Chapter 7
  72. 01:00:43.042                : :Chapter 8
  73. 01:09:41.667                : :Chapter 9
  74. 01:14:34.625                : :Chapter 10
  75. 01:21:08.292                : :Chapter 11
  76. 01:32:39.000                : :Chapter 12
RAW Paste Data
We use cookies for various purposes including analytics. By continuing to use Pastebin, you agree to our use of cookies as described in the Cookies Policy. OK, I Understand
 
Top