SHARE
TWEET

Security.Unlimited.1981.BluRay.1080p.DTS-HD.MA.7.1.AVC.REMUX-FraMeSToR

a guest Jun 17th, 2019 92 Never
Not a member of Pastebin yet? Sign Up, it unlocks many cool features!
  1. General
  2. Complete name                            : Security.Unlimited.1981.BluRay.1080p.DTS-HD.MA.7.1.AVC.REMUX-FraMeSToR.mkv
  3. Format                                   : Matroska
  4. Format version                           : Version 4
  5. File size                                : 19.6 GiB
  6. Duration                                 : 1 h 30 min
  7. Overall bit rate mode                    : Variable
  8. Overall bit rate                         : 30.8 Mb/s
  9. Encoded date                             : UTC 2019-06-08 07:13:36
  10. Writing application                      : mkvmerge v33.0.0 ('A Little Bit of Madness') 64-bit
  11. Writing library                          : libebml v1.3.7 + libmatroska v1.5.0
  12.  
  13. Video
  14. ID                                       : 1
  15. Format                                   : AVC
  16. Format/Info                              : Advanced Video Codec
  17. Format profile                           : High@L4.1
  18. Format settings                          : CABAC / 4 Ref Frames
  19. Format settings, CABAC                   : Yes
  20. Format settings, Reference frames        : 4 frames
  21. Format settings, GOP                     : M=3, N=24
  22. Codec ID                                 : V_MPEG4/ISO/AVC
  23. Duration                                 : 1 h 30 min
  24. Bit rate mode                            : Variable
  25. Bit rate                                 : 28.0 Mb/s
  26. Maximum bit rate                         : 32.0 Mb/s
  27. Width                                    : 1 920 pixels
  28. Height                                   : 1 080 pixels
  29. Display aspect ratio                     : 16:9
  30. Frame rate mode                          : Constant
  31. Frame rate                               : 23.976 (24000/1001) FPS
  32. Standard                                 : NTSC
  33. Color space                              : YUV
  34. Chroma subsampling                       : 4:2:0
  35. Bit depth                                : 8 bits
  36. Scan type                                : Progressive
  37. Bits/(Pixel*Frame)                       : 0.563
  38. Stream size                              : 17.8 GiB (91%)
  39. Default                                  : Yes
  40. Forced                                   : No
  41. Color range                              : Limited
  42. Color primaries                          : BT.709
  43. Transfer characteristics                 : BT.709
  44. Matrix coefficients                      : BT.709
  45.  
  46. Audio
  47. ID                                       : 2
  48. Format                                   : DTS XLL
  49. Format/Info                              : Digital Theater Systems
  50. Commercial name                          : DTS-HD Master Audio
  51. Codec ID                                 : A_DTS
  52. Duration                                 : 1 h 30 min
  53. Bit rate mode                            : Variable
  54. Bit rate                                 : 2 771 kb/s
  55. Channel(s)                               : 8 channels
  56. Channel layout                           : C L R LFE Lb Rb Lss Rss
  57. Sampling rate                            : 48.0 kHz
  58. Frame rate                               : 93.750 FPS (512 SPF)
  59. Bit depth                                : 16 bits
  60. Compression mode                         : Lossless
  61. Stream size                              : 1.76 GiB (9%)
  62. Title                                    : DTS-HD MA 7.1
  63. Language                                 : Chinese
  64. Default                                  : Yes
  65. Forced                                   : No
  66.  
  67. Text #1
  68. ID                                       : 3
  69. Format                                   : PGS
  70. Codec ID                                 : S_HDMV/PGS
  71. Codec ID/Info                            : Picture based subtitle format used on BDs/HD-DVDs
  72. Duration                                 : 1 h 27 min
  73. Bit rate                                 : 27.6 kb/s
  74. Count of elements                        : 1912
  75. Stream size                              : 17.2 MiB (0%)
  76. Title                                    : English
  77. Language                                 : English
  78. Default                                  : Yes
  79. Forced                                   : Yes
  80.  
  81. Text #2
  82. ID                                       : 4
  83. Format                                   : PGS
  84. Codec ID                                 : S_HDMV/PGS
  85. Codec ID/Info                            : Picture based subtitle format used on BDs/HD-DVDs
  86. Duration                                 : 1 h 27 min
  87. Bit rate                                 : 36.0 kb/s
  88. Count of elements                        : 1912
  89. Stream size                              : 22.5 MiB (0%)
  90. Title                                    : Chinese (Traditional)
  91. Language                                 : Chinese
  92. Default                                  : No
  93. Forced                                   : No
  94.  
  95. Menu
  96. 00:00:00.000                             : en:Chapter 1
  97. 00:04:54.753                             : en:Chapter 2
  98. 00:08:47.152                             : en:Chapter 3
  99. 00:12:05.475                             : en:Chapter 4
  100. 00:16:00.543                             : en:Chapter 5
  101. 00:20:47.496                             : en:Chapter 6
  102. 00:27:46.081                             : en:Chapter 7
  103. 00:33:57.744                             : en:Chapter 8
  104. 00:37:49.934                             : en:Chapter 9
  105. 00:41:44.335                             : en:Chapter 10
  106. 00:47:14.290                             : en:Chapter 11
  107. 00:53:46.807                             : en:Chapter 12
  108. 00:59:58.011                             : en:Chapter 13
  109. 01:04:59.729                             : en:Chapter 14
  110. 01:09:35.046                             : en:Chapter 15
  111. 01:12:03.361                             : en:Chapter 16
  112. 01:17:39.864                             : en:Chapter 17
  113. 01:20:22.401                             : en:Chapter 18
  114. 01:24:54.339                             : en:Chapter 19
  115. 01:26:22.469                             : en:Chapter 20
RAW Paste Data
We use cookies for various purposes including analytics. By continuing to use Pastebin, you agree to our use of cookies as described in the Cookies Policy. OK, I Understand
 
Top