Guest User

Blue.Streak.1999.1080p.BluRay.DTS.x264-CtrlHD

a guest
May 11th, 2019
27
Never
Not a member of Pastebin yet? Sign Up, it unlocks many cool features!
  1. General
  2. Unique ID                                : 191508427615355170029654490177942258998 (0x90132E790EC0A68CBB46B9718CCF0536)
  3. Complete name                            : Blue.Streak.1999.1080p.BluRay.DTS.x264-CtrlHD.mkv
  4. Format                                   : Matroska
  5. Format version                           : Version 1
  6. File size                                : 8.36 GiB
  7. Duration                                 : 1 h 34 min
  8. Overall bit rate                         : 12.7 Mb/s
  9. Encoded date                             : UTC 2008-11-20 19:36:54
  10. Writing application                      : mkvmerge v2.1.0 ('Another Place To Fall') built on Aug 19 2007 13:40:07
  11. Writing library                          : libebml v0.7.7 + libmatroska v0.8.1
  12.  
  13. Video
  14. ID                                       : 1
  15. Format                                   : AVC
  16. Format/Info                              : Advanced Video Codec
  17. Format profile                           : High@L4.1
  18. Format settings                          : CABAC / 5 Ref Frames
  19. Format settings, CABAC                   : Yes
  20. Format settings, Reference frames        : 5 frames
  21. Codec ID                                 : V_MPEG4/ISO/AVC
  22. Duration                                 : 1 h 34 min
  23. Bit rate                                 : 11.2 Mb/s
  24. Width                                    : 1 920 pixels
  25. Height                                   : 1 040 pixels
  26. Display aspect ratio                     : 1.85:1
  27. Frame rate mode                          : Constant
  28. Frame rate                               : 23.976 FPS
  29. Color space                              : YUV
  30. Chroma subsampling                       : 4:2:0
  31. Bit depth                                : 8 bits
  32. Scan type                                : Progressive
  33. Bits/(Pixel*Frame)                       : 0.234
  34. Stream size                              : 7.20 GiB (86%)
  35. Writing library                          : x264 core 65 r1026M 745a48b
  36. Encoding settings                        : cabac=1 / ref=5 / deblock=1:-3:-3 / analyse=0x3:0x113 / me=umh / subme=9 / psy_rd=1.0:0.5 / mixed_ref=0 / me_range=16 / chroma_me=1 / trellis=2 / 8x8dct=1 / cqm=0 / deadzone=21,11 / chroma_qp_offset=-4 / threads=6 / nr=0 / decimate=0 / mbaff=0 / bframes=5 / b_pyramid=1 / b_adapt=2 / b_bias=0 / direct=3 / wpredb=1 / keyint=250 / keyint_min=25 / scenecut=40(pre) / rc=2pass / bitrate=11200 / ratetol=1.0 / qcomp=0.60 / qpmin=10 / qpmax=51 / qpstep=4 / cplxblur=20.0 / qblur=0.5 / ip_ratio=1.40 / pb_ratio=1.30 / aq=1:0.50
  37. Language                                 : English
  38. Default                                  : Yes
  39. Forced                                   : No
  40.  
  41. Audio
  42. ID                                       : 2
  43. Format                                   : DTS
  44. Format/Info                              : Digital Theater Systems
  45. Codec ID                                 : A_DTS
  46. Duration                                 : 1 h 34 min
  47. Bit rate mode                            : Constant
  48. Bit rate                                 : 1 510 kb/s
  49. Channel(s)                               : 6 channels
  50. Channel layout                           : C L R Ls Rs LFE
  51. Sampling rate                            : 48.0 kHz
  52. Frame rate                               : 93.750 FPS (512 SPF)
  53. Bit depth                                : 24 bits
  54. Compression mode                         : Lossy
  55. Stream size                              : 1 016 MiB (12%)
  56. Title                                    : English
  57. Language                                 : English
  58. Default                                  : Yes
  59. Forced                                   : No
  60.  
  61.  
  62. General
  63. Unique ID                                : 191508427615355170029654490177942258998 (0x90132E790EC0A68CBB46B9718CCF0536)
  64. Complete name                            : Blue.Streak.1999.1080p.BluRay.DTS.x264-CtrlHD.mkv
  65. Format                                   : Matroska
  66. Format version                           : Version 1
  67. File size                                : 8.36 GiB
  68. Duration                                 : 1 h 34 min
  69. Overall bit rate                         : 12.7 Mb/s
  70. Encoded date                             : UTC 2008-11-20 19:36:54
  71. Writing application                      : mkvmerge v2.1.0 ('Another Place To Fall') built on Aug 19 2007 13:40:07
  72. Writing library                          : libebml v0.7.7 + libmatroska v0.8.1
  73.  
  74. Video
  75. ID                                       : 1
  76. Format                                   : AVC
  77. Format/Info                              : Advanced Video Codec
  78. Format profile                           : High@L4.1
  79. Format settings                          : CABAC / 5 Ref Frames
  80. Format settings, CABAC                   : Yes
  81. Format settings, Reference frames        : 5 frames
  82. Codec ID                                 : V_MPEG4/ISO/AVC
  83. Duration                                 : 1 h 34 min
  84. Bit rate                                 : 11.2 Mb/s
  85. Width                                    : 1 920 pixels
  86. Height                                   : 1 040 pixels
  87. Display aspect ratio                     : 1.85:1
  88. Frame rate mode                          : Constant
  89. Frame rate                               : 23.976 FPS
  90. Color space                              : YUV
  91. Chroma subsampling                       : 4:2:0
  92. Bit depth                                : 8 bits
  93. Scan type                                : Progressive
  94. Bits/(Pixel*Frame)                       : 0.234
  95. Stream size                              : 7.20 GiB (86%)
  96. Writing library                          : x264 core 65 r1026M 745a48b
  97. Encoding settings                        : cabac=1 / ref=5 / deblock=1:-3:-3 / analyse=0x3:0x113 / me=umh / subme=9 / psy_rd=1.0:0.5 / mixed_ref=0 / me_range=16 / chroma_me=1 / trellis=2 / 8x8dct=1 / cqm=0 / deadzone=21,11 / chroma_qp_offset=-4 / threads=6 / nr=0 / decimate=0 / mbaff=0 / bframes=5 / b_pyramid=1 / b_adapt=2 / b_bias=0 / direct=3 / wpredb=1 / keyint=250 / keyint_min=25 / scenecut=40(pre) / rc=2pass / bitrate=11200 / ratetol=1.0 / qcomp=0.60 / qpmin=10 / qpmax=51 / qpstep=4 / cplxblur=20.0 / qblur=0.5 / ip_ratio=1.40 / pb_ratio=1.30 / aq=1:0.50
  98. Language                                 : English
  99. Default                                  : Yes
  100. Forced                                   : No
  101.  
  102. Audio
  103. ID                                       : 2
  104. Format                                   : DTS
  105. Format/Info                              : Digital Theater Systems
  106. Codec ID                                 : A_DTS
  107. Duration                                 : 1 h 34 min
  108. Bit rate mode                            : Constant
  109. Bit rate                                 : 1 510 kb/s
  110. Channel(s)                               : 6 channels
  111. Channel layout                           : C L R Ls Rs LFE
  112. Sampling rate                            : 48.0 kHz
  113. Frame rate                               : 93.750 FPS (512 SPF)
  114. Bit depth                                : 24 bits
  115. Compression mode                         : Lossy
  116. Stream size                              : 1 016 MiB (12%)
  117. Title                                    : English
  118. Language                                 : English
  119. Default                                  : Yes
  120. Forced                                   : No
RAW Paste Data