SHARE
TWEET

2014_The_Best_Of_Me_Blu-Ray_1080P_DuaL_X265_10Bits_Slower_Ch

ChrisHD13 Jul 11th, 2019 77 Never
Not a member of Pastebin yet? Sign Up, it unlocks many cool features!
  1. Complete name               : E:\Rips\2014_The_Best_Of_Me_Blu-Ray_1080P_DuaL_X265_10Bits_Slower_ChrisHD.mkv
  2. Format                      : Matroska
  3. Format version              : Version 4 / Version 2
  4. File size                   : 4.40 GiB
  5. Duration                    : 1 h 57 min
  6. Overall bit rate            : 5 343 kb/s
  7. Encoded date                : UTC 2017-12-02 04:58:56
  8. Writing application         : mkvmerge v16.0.0 ('Protest') 64-bit
  9. Writing library             : libebml v1.3.5 + libmatroska v1.4.8
  10.  
  11. Video
  12. ID                          : 1
  13. Format                      : HEVC
  14. Format/Info                 : High Efficiency Video Coding
  15. Format profile              : Main 10@L4@Main
  16. Codec ID                    : V_MPEGH/ISO/HEVC
  17. Duration                    : 1 h 57 min
  18. Bit rate                    : 3 617 kb/s
  19. Width                       : 1 920 pixels
  20. Height                      : 1 080 pixels
  21. Display aspect ratio        : 16:9
  22. Frame rate mode             : Constant
  23. Frame rate                  : 23.976 (24000/1001) FPS
  24. Color space                 : YUV
  25. Chroma subsampling          : 4:2:0
  26. Bit depth                   : 10 bits
  27. Bits/(Pixel*Frame)          : 0.073
  28. Stream size                 : 2.98 GiB (68%)
  29. Title                       : BD50 - ChrisHD
  30. Writing library             : x265 2.5+2-18fa144d453e:[Windows][GCC 7.1.0][64 bit] 10bit
  31. Encoding settings           : cpuid=1173503 / frame-threads=5 / numa-pools=20,20 / wpp / no-pmode / no-pme / no-psnr / no-ssim / log-level=2 / input-csp=1 / input-res=1920x1080 / interlace=0 / total-frames=169464 / level-idc=0 / high-tier=1 / uhd-bd=0 / ref=4 / no-allow-non-conformance / no-repeat-headers / annexb / no-aud / no-hrd / info / hash=0 / no-temporal-layers / open-gop / min-keyint=23 / keyint=250 / bframes=8 / b-adapt=2 / b-pyramid / bframe-bias=0 / rc-lookahead=40 / lookahead-slices=4 / scenecut=40 / no-intra-refresh / ctu=64 / min-cu-size=8 / rect / amp / max-tu-size=32 / tu-inter-depth=2 / tu-intra-depth=2 / limit-tu=4 / rdoq-level=2 / dynamic-rd=0.00 / no-ssim-rd / signhide / no-tskip / nr-intra=0 / nr-inter=0 / no-constrained-intra / strong-intra-smoothing / max-merge=3 / limit-refs=2 / limit-modes / me=3 / subme=3 / merange=57 / temporal-mvp / weightp / weightb / no-analyze-src-pics / deblock=-2:-2 / no-sao / no-sao-non-deblock / rd=6 / no-early-skip / rskip / no-fast-intra / no-tskip-fast / no-cu-lossless / b-intra / rdpenalty=0 / psy-rd=2.00 / psy-rdoq=1.00 / no-rd-refine / analysis-reuse-mode=0 / no-lossless / cbqpoffs=0 / crqpoffs=0 / rc=crf / crf=20.0 / qcomp=0.60 / qpstep=4 / stats-write=0 / stats-read=0 / ipratio=1.40 / pbratio=1.30 / aq-mode=1 / aq-strength=1.00 / cutree / zone-count=0 / no-strict-cbr / qg-size=32 / no-rc-grain / qpmax=69 / qpmin=0 / no-const-vbv / sar=1 / overscan=0 / videoformat=5 / range=0 / colorprim=2 / transfer=2 / colormatrix=2 / chromaloc=0 / display-window=0 / max-cll=0,0 / min-luma=0 / max-luma=1023 / log2-max-poc-lsb=8 / vui-timing-info / vui-hrd-info / slices=1 / opt-qp-pps / opt-ref-list-length-pps / no-multi-pass-opt-rps / scenecut-bias=0.05 / no-opt-cu-delta-qp / no-aq-motion / no-hdr / no-hdr-opt / no-dhdr10-opt / analysis-reuse-level=5 / scale-factor=0 / refine-intra=0 / refine-inter=0 / refine-mv=0 / no-limit-sao / ctu-info=0
  32. Default                     : Yes
  33. Forced                      : No
  34.  
  35. Audio #1
  36. ID                          : 2
  37. Format                      : DTS
  38. Format/Info                 : Digital Theater Systems
  39. Codec ID                    : A_DTS
  40. Duration                    : 1 h 57 min
  41. Bit rate mode               : Constant
  42. Bit rate                    : 1 509 kb/s
  43. Channel(s)                  : 6 channels
  44. Channel positions           : Front: L C R, Side: L R, LFE
  45. Sampling rate               : 48.0 kHz
  46. Frame rate                  : 93.750 FPS (512 SPF)
  47. Bit depth                   : 24 bits
  48. Compression mode            : Lossy
  49. Stream size                 : 1.24 GiB (28%)
  50. Title                       : Ingl├ęs - ChrisHD
  51. Language                    : English
  52. Default                     : Yes
  53. Forced                      : No
  54.  
  55. Audio #2
  56. ID                          : 3
  57. Format                      : AC-3
  58. Format/Info                 : Audio Coding 3
  59. Codec ID                    : A_AC3
  60. Duration                    : 1 h 57 min
  61. Bit rate mode               : Constant
  62. Bit rate                    : 192 kb/s
  63. Channel(s)                  : 2 channels
  64. Channel positions           : Front: L R
  65. Sampling rate               : 48.0 kHz
  66. Frame rate                  : 31.250 FPS (1536 SPF)
  67. Bit depth                   : 16 bits
  68. Compression mode            : Lossy
  69. Delay relative to video     : 500 ms
  70. Stream size                 : 162 MiB (4%)
  71. Title                       : Latino - ChrisHD
  72. Language                    : Spanish
  73. Service kind                : Complete Main
  74. Default                     : No
  75. Forced                      : No
  76.  
  77. Text #1
  78. ID                          : 4
  79. Format                      : UTF-8
  80. Codec ID                    : S_TEXT/UTF8
  81. Codec ID/Info               : UTF-8 Plain Text
  82. Duration                    : 1 h 56 min
  83. Bit rate                    : 46 b/s
  84. Count of elements           : 1245
  85. Stream size                 : 39.8 KiB (0%)
  86. Title                       : Latino - ChrisHD [SRT]
  87. Language                    : Spanish
  88. Default                     : Yes
  89. Forced                      : No
  90.  
  91. Text #2
  92. ID                          : 5
  93. Format                      : PGS
  94. Muxing mode                 : zlib
  95. Codec ID                    : S_HDMV/PGS
  96. Codec ID/Info               : Picture based subtitle format used on BDs/HD-DVDs
  97. Duration                    : 1 h 56 min
  98. Bit rate                    : 49.2 kb/s
  99. Count of elements           : 2497
  100. Stream size                 : 41.1 MiB (1%)
  101. Title                       : Latino - ChrisHD [PGS]
  102. Language                    : Spanish
  103. Default                     : No
  104. Forced                      : No
  105.  
  106. Menu
  107. 00:00:00.000                : en:00:00:00.000
  108. 00:05:11.520                : en:00:05:11.520
  109. 00:11:17.051                : en:00:11:17.051
  110. 00:14:13.853                : en:00:14:13.853
  111. 00:19:56.278                : en:00:19:56.278
  112. 00:24:32.388                : en:00:24:32.388
  113. 00:28:30.375                : en:00:28:30.375
  114. 00:30:40.881                : en:00:30:40.881
  115. 00:35:34.299                : en:00:35:34.299
  116. 00:39:33.997                : en:00:39:33.997
  117. 00:45:15.630                : en:00:45:15.630
  118. 00:51:31.880                : en:00:51:31.880
  119. 00:58:25.919                : en:00:58:25.919
  120. 01:04:35.121                : en:01:04:35.121
  121. 01:08:27.895                : en:01:08:27.895
  122. 01:14:44.313                : en:01:14:44.313
  123. 01:21:56.453                : en:01:21:56.453
  124. 01:29:52.095                : en:01:29:52.095
  125. 01:32:59.616                : en:01:32:59.616
  126. 01:36:39.168                : en:01:36:39.168
  127. 01:40:49.043                : en:01:40:49.043
  128. 01:46:25.504                : en:01:46:25.504
  129. 01:49:18.844                : en:01:49:18.844
  130. 01:51:09.580                : en:01:51:09.580
RAW Paste Data
We use cookies for various purposes including analytics. By continuing to use Pastebin, you agree to our use of cookies as described in the Cookies Policy. OK, I Understand
 
Top