GrabHD

Untitled

Mar 16th, 2020
96
Never
Not a member of Pastebin yet? Sign Up, it unlocks many cool features!
  1. General
  2. Unique ID : 306431047928754771849041907729313960696 (0xE688791DB5DD8DF50D85AD3C279E12F8)
  3. Complete name : E:Video111Crypto.2019.BDRip.1080p.seleZen.mkv
  4. Format : Matroska
  5. Format version : Version 4
  6. File size : 11.2 GiB
  7. Duration : 1 h 45 min
  8. Overall bit rate : 15.2 Mb/s
  9. Movie name : Crypto 2019 from селезень
  10. Encoded date : UTC 2020-03-16 20:23:19
  11. Writing application : mkvmerge v40.0.0 ('Old Town Road + Pony') 64-bit
  12. Writing library : libebml v1.3.9 + libmatroska v1.5.2
  13.  
  14. Video
  15. ID : 1
  16. Format : AVC
  17. Format/Info : Advanced Video Codec
  18. Format profile : High@L4.1
  19. Format settings : CABAC / 5 Ref Frames
  20. Format settings, CABAC : Yes
  21. Format settings, Reference : 5 frames
  22. Codec ID : V_MPEG4/ISO/AVC
  23. Duration : 1 h 45 min
  24. Bit rate : 14.1 Mb/s
  25. Width : 1 920 pixels
  26. Height : 722 pixels
  27. Display aspect ratio : 2.659
  28. Frame rate mode : Constant
  29. Frame rate : 23.976 (24000/1001) FPS
  30. Color space : YUV
  31. Chroma subsampling : 4:2:0
  32. Bit depth : 8 bits
  33. Scan type : Progressive
  34. Bits/(Pixel*Frame) : 0.425
  35. Stream size : 10.4 GiB (93%)
  36. Title : MiBR
  37. Writing library : x264 core 155 r2867+74 66b5600 t_mod_Custom_2 [8-bit@all X86_64]
  38. Encoding settings : cabac=1 / ref=5 / deblock=1:-3:-3 / analyse=0x3:0x113 / me=umh / subme=11 / psy=1 / fade_compensate=0.00 / psy_rd=1.00:0.00 / mixed_ref=1 / me_range=32 / chroma_me=1 / trellis=2 / 8x8dct=1 / cqm=0 / deadzone=21,11 / fast_pskip=0 / chroma_qp_offset=-2 / threads=12 / lookahead_threads=3 / sliced_threads=0 / nr=0 / decimate=0 / interlaced=0 / bluray_compat=0 / constrained_intra=0 / fgo=0 / bframes=10 / b_pyramid=2 / b_adapt=2 / b_bias=0 / direct=3 / weightb=1 / open_gop=0 / weightp=2 / keyint=250 / keyint_min=23 / scenecut=40 / intra_refresh=0 / rc_lookahead=60 / rc=crf / mbtree=0 / crf=15.1000 / qcomp=0.60 / qpmin=0:0:0 / qpmax=69:69:69 / qpstep=4 / vbv_maxrate=62500 / vbv_bufsize=78125 / crf_max=0.0 / nal_hrd=none / filler=0 / ip_ratio=1.30 / pb_ratio=1.20 / aq=3:0.80 / aq-sensitivity=10.00 / aq-factor=1.00:1.00:1.00 / aq2=0 / aq3=0 / zones=40,1371,crf=13.1/18727,18782,crf=14.1/20549,20716,crf=14.1/24935,24984,crf=14.1/38249,38303,crf=13.1/41052,41271,crf=14.1/41315,41359,crf=14.1/41427,41492,crf=14.1/41545,41591,crf=14.1/63310,63389,crf=14.1/64006,64124,crf=14.1/64181,64256,crf=14.1/64446,64481,crf=14.1/64580,64759,crf=14.1/93812,93936,crf=14.1/93998,94294,crf=14.1/101915,102014,crf=14.1/102060,102158,crf=14.1/102275,102378,crf=14.1/102526,102655,crf=13.1/103517,103612,crf=14.1/103755,103796,crf=14.1/103890,104049,crf=14.1/110457,110580,crf=14.1/121377,121514,crf=14.1/122291,122422,crf=14.1/122470,122524,crf=14.1/122559,122778,crf=13.1/123106,123156,crf=14.1/123329,123379,crf=14.1/132643,132797,crf=14.1/133204,133218,crf=14.1/133346,133509,crf=14.1/133640,133673,crf=14.1/134233,134290,crf=14.1
  39. Language : English
  40. Default : Yes
  41. Forced : No
  42. Color range : Limited
  43. Color primaries : BT.709
  44. Transfer characteristics : BT.709
  45. Matrix coefficients : BT.709
  46.  
  47. Audio #1
  48. ID : 2
  49. Format : AC-3
  50. Format/Info : Audio Coding 3
  51. Commercial name : Dolby Digital
  52. Codec ID : A_AC3
  53. Duration : 1 h 45 min
  54. Bit rate mode : Constant
  55. Bit rate : 384 kb/s
  56. Channel(s) : 6 channels
  57. Channel layout : L R C LFE Ls Rs
  58. Sampling rate : 48.0 kHz
  59. Frame rate : 31.250 FPS (1536 SPF)
  60. Compression mode : Lossy
  61. Stream size : 291 MiB (3%)
  62. Title : iTunes
  63. Language : Russian
  64. Service kind : Complete Main
  65. Default : Yes
  66. Forced : Yes
  67.  
  68. Audio #2
  69. ID : 3
  70. Format : AC-3
  71. Format/Info : Audio Coding 3
  72. Commercial name : Dolby Digital
  73. Codec ID : A_AC3
  74. Duration : 1 h 45 min
  75. Bit rate mode : Constant
  76. Bit rate : 640 kb/s
  77. Channel(s) : 6 channels
  78. Channel layout : L R C LFE Ls Rs
  79. Sampling rate : 48.0 kHz
  80. Frame rate : 31.250 FPS (1536 SPF)
  81. Compression mode : Lossy
  82. Stream size : 484 MiB (4%)
  83. Title : Original
  84. Language : English
  85. Service kind : Complete Main
  86. Default : No
  87. Forced : No
  88.  
  89. Text #1
  90. ID : 4
  91. Format : UTF-8
  92. Codec ID : S_TEXT/UTF8
  93. Codec ID/Info : UTF-8 Plain Text
  94. Duration : 1 h 38 min
  95. Bit rate : 6 b/s
  96. Count of elements : 83
  97. Stream size : 4.61 KiB (0%)
  98. Title : Forced
  99. Language : Russian
  100. Default : Yes
  101. Forced : Yes
  102.  
  103. Text #2
  104. ID : 5
  105. Format : UTF-8
  106. Codec ID : S_TEXT/UTF8
  107. Codec ID/Info : UTF-8 Plain Text
  108. Duration : 1 h 14 min
  109. Bit rate : 0 b/s
  110. Count of elements : 11
  111. Stream size : 360 Bytes (0%)
  112. Title : Forced
  113. Language : English
  114. Default : No
  115. Forced : No
  116.  
  117. Text #3
  118. ID : 6
  119. Format : UTF-8
  120. Codec ID : S_TEXT/UTF8
  121. Codec ID/Info : UTF-8 Plain Text
  122. Duration : 1 h 37 min
  123. Bit rate : 60 b/s
  124. Count of elements : 1331
  125. Stream size : 43.2 KiB (0%)
  126. Title : Full
  127. Language : English
  128. Default : No
  129. Forced : No
  130.  
  131. Text #4
  132. ID : 7
  133. Format : UTF-8
  134. Codec ID : S_TEXT/UTF8
  135. Codec ID/Info : UTF-8 Plain Text
  136. Duration : 1 h 38 min
  137. Bit rate : 63 b/s
  138. Count of elements : 1401
  139. Stream size : 45.7 KiB (0%)
  140. Title : SDH
  141. Language : English
  142. Default : No
  143. Forced : No
  144.  
  145. Menu
  146. 00:00:00.000 : :Chapter 01
  147. 00:06:11.496 : :Chapter 02
  148. 00:14:17.065 : :Chapter 03
  149. 00:19:25.664 : :Chapter 04
  150. 00:26:46.313 : :Chapter 05
  151. 00:33:37.682 : :Chapter 06
  152. 00:39:04.384 : :Chapter 07
  153. 00:47:56.082 : :Chapter 08
  154. 00:52:54.880 : :Chapter 09
  155. 00:56:47.654 : :Chapter 10
  156. 01:04:28.031 : :Chapter 11
  157. 01:13:03.879 : :Chapter 12
  158. 01:18:11.270 : :Chapter 13
  159. 01:26:40.946 : :Chapter 14
  160. 01:33:37.445 : :Chapter 15
  161. 01:38:01.209 : :Chapter 16
RAW Paste Data