Secasa

momia

Sep 4th, 2014
238
Never
Not a member of Pastebin yet? Sign Up, it unlocks many cool features!
  1. Format : Matroska
  2. Format version : Version 4 / Version 2
  3. File size : 4.07 GiB
  4. Duration : 1h 13mn
  5. Overall bit rate : 7 971 Kbps
  6. Encoded date : UTC 2014-09-02 21:01:24
  7. Writing application : mkvmerge v6.3.0 ('You can't stop me!') built on Jun 28 2013 20:09:41
  8. Writing library : libebml v1.3.0 + libmatroska v1.4.0
  9.  
  10. Video
  11. ID : 1
  12. Format : AVC
  13. Format/Info : Advanced Video Codec
  14. Format profile : High@L4.0
  15. Format settings, CABAC : Yes
  16. Format settings, ReFrames : 3 frames
  17. Codec ID : V_MPEG4/ISO/AVC
  18. Duration : 1h 13mn
  19. Bit rate : 6 532 Kbps
  20. Width : 1 480 pixels
  21. Height : 1 080 pixels
  22. Display aspect ratio : 1.370
  23. Frame rate : 23.976 fps
  24. Color space : YUV
  25. Chroma subsampling : 4:2:0
  26. Bit depth : 8 bits
  27. Scan type : Progressive
  28. Bits/(Pixel*Frame) : 0.170
  29. Stream size : 3.34 GiB (82%)
  30. Writing library : x264 core 130 r2273 b3065e6
  31. Encoding settings : cabac=1 / ref=4 / deblock=1:-2:-2 / analyse=0x3:0x113 / me=hex / subme=9 / psy=1 / psy_rd=1,00:0,15 / mixed_ref=1 / me_range=16 / chroma_me=1 / trellis=2 / 8x8dct=1 / cqm=0 / deadzone=21,11 / fast_pskip=1 / chroma_qp_offset=-3 / threads=12 / lookahead_threads=1 / sliced_threads=0 / nr=0 / decimate=1 / interlaced=0 / bluray_compat=0 / constrained_intra=0 / bframes=4 / b_pyramid=1 / b_adapt=2 / b_bias=0 / direct=1 / weightb=1 / open_gop=0 / weightp=1 / keyint=240 / keyint_min=24 / scenecut=40 / intra_refresh=0 / rc_lookahead=40 / rc=crf / mbtree=1 / crf=22,0 / qcomp=0,60 / qpmin=0 / qpmax=69 / qpstep=4 / ip_ratio=1,40 / aq=1:1,00
  32. Language : English
  33. Default : Yes
  34. Forced : No
  35. Color primaries : BT.709-5, BT.1361, IEC 61966-2-4, SMPTE RP177
  36. Transfer characteristics : BT.709-5, BT.1361
  37. Matrix coefficients : BT.709-5, BT.1361, IEC 61966-2-4 709, SMPTE RP177
  38.  
  39. Audio #1
  40. ID : 2
  41. Format : AC-3
  42. Format/Info : Audio Coding 3
  43. Mode extension : CM (complete main)
  44. Codec ID : A_AC3
  45. Duration : 1h 13mn
  46. Bit rate mode : Constant
  47. Bit rate : 640 Kbps
  48. Channel(s) : 2 channels
  49. Channel positions : Front: L R
  50. Sampling rate : 48.0 KHz
  51. Bit depth : 16 bits
  52. Compression mode : Lossy
  53. Stream size : 335 MiB (8%)
  54. Title : Castellano www.trackerhd.com
  55. Language : Spanish
  56. Default : Yes
  57. Forced : No
  58.  
  59. Audio #2
  60. ID : 3
  61. Format : AC-3
  62. Format/Info : Audio Coding 3
  63. Mode extension : CM (complete main)
  64. Codec ID : A_AC3
  65. Duration : 1h 13mn
  66. Bit rate mode : Constant
  67. Bit rate : 640 Kbps
  68. Channel(s) : 2 channels
  69. Channel positions : Front: L R
  70. Sampling rate : 48.0 KHz
  71. Bit depth : 16 bits
  72. Compression mode : Lossy
  73. Stream size : 335 MiB (8%)
  74. Title : AC3 Ingles www.todohdtv.com
  75. Language : English
  76. Default : No
  77. Forced : No
  78.  
  79. Text #1
  80. ID : 4
  81. Format : PGS
  82. Muxing mode : zlib
  83. Codec ID : S_HDMV/PGS
  84. Codec ID/Info : The same subtitle format used on BDs/HD-DVDs
  85. Title : Ingles
  86. Language : English
  87. Default : No
  88. Forced : No
  89.  
  90. Text #2
  91. ID : 5
  92. Format : PGS
  93. Muxing mode : zlib
  94. Codec ID : S_HDMV/PGS
  95. Codec ID/Info : The same subtitle format used on BDs/HD-DVDs
  96. Title : Castellano
  97. Language : Spanish
  98. Default : No
  99. Forced : No
  100.  
  101. Text #3
  102. ID : 6
  103. Format : PGS
  104. Muxing mode : zlib
  105. Codec ID : S_HDMV/PGS
  106. Codec ID/Info : The same subtitle format used on BDs/HD-DVDs
  107. Title : Ingles
  108. Language : English
  109. Default : No
  110. Forced : No
  111.  
  112. Text #4
  113. ID : 7
  114. Format : PGS
  115. Muxing mode : zlib
  116. Codec ID : S_HDMV/PGS
  117. Codec ID/Info : The same subtitle format used on BDs/HD-DVDs
  118. Title : Castellano
  119. Language : Spanish
  120. Default : No
  121. Forced : No
  122.  
  123. Text #5
  124. ID : 8
  125. Format : PGS
  126. Muxing mode : zlib
  127. Codec ID : S_HDMV/PGS
  128. Codec ID/Info : The same subtitle format used on BDs/HD-DVDs
  129. Title : Ingles
  130. Language : English
  131. Default : No
  132. Forced : No
  133.  
  134. Text #6
  135. ID : 9
  136. Format : PGS
  137. Muxing mode : zlib
  138. Codec ID : S_HDMV/PGS
  139. Codec ID/Info : The same subtitle format used on BDs/HD-DVDs
  140. Title : Castellano
  141. Language : Spanish
  142. Default : No
  143. Forced : No
  144.  
  145. Text #7
  146. ID : 10
  147. Format : PGS
  148. Muxing mode : zlib
  149. Codec ID : S_HDMV/PGS
  150. Codec ID/Info : The same subtitle format used on BDs/HD-DVDs
  151. Title : Castellano
  152. Language : Spanish
  153. Default : No
  154. Forced : No
  155.  
  156. Text #8
  157. ID : 11
  158. Format : PGS
  159. Muxing mode : zlib
  160. Codec ID : S_HDMV/PGS
  161. Codec ID/Info : The same subtitle format used on BDs/HD-DVDs
  162. Title : Castellano
  163. Language : Spanish
  164. Default : No
  165. Forced : No
RAW Paste Data