Guest User

E01

a guest
Feb 3rd, 2018
74
Never
Not a member of Pastebin yet? Sign Up, it unlocks many cool features!
  1. General
  2. Unique ID : 2219194880426538418840529045230438730 (0x1AB66C150D5C45DB9E1EBE1B3E3C94A)
  3. Complete name : [DB]Working'!!_-_01_(10bit_BD1080p_x265).mkv
  4. Format : Matroska
  5. Format version : Version 2
  6. File size : 203 MiB
  7. Duration : 24 min 25 s
  8. Overall bit rate : 1 160 kb/s
  9. Encoded date : UTC 2018-01-22 12:16:25
  10. Writing application : mkvmerge v19.0.0 ('Brave Captain') 64-bit
  11. Writing library : libebml v1.3.5 + libmatroska v1.4.8
  12. Attachments : ahronbd.ttf / arial.ttf / comicbd.ttf / hgrgep_0.TTF / KF-ED7 Kanji_1.ttf / MyriadWebPro-Condensed.ttf
  13.  
  14. Video
  15. ID : 1
  16. Format : HEVC
  17. Format/Info : High Efficiency Video Coding
  18. Format profile : Main 10@L4@Main
  19. Codec ID : V_MPEGH/ISO/HEVC
  20. Duration : 24 min 25 s
  21. Bit rate : 1 009 kb/s
  22. Width : 1 920 pixels
  23. Height : 1 080 pixels
  24. Display aspect ratio : 16:9
  25. Frame rate mode : Constant
  26. Frame rate : 23.976 (24000/1001) FPS
  27. Color space : YUV
  28. Chroma subsampling : 4:2:0
  29. Bit depth : 10 bits
  30. Bits/(Pixel*Frame) : 0.020
  31. Stream size : 176 MiB (87%)
  32. Writing library : x265 2.5+49-563cbe1f4a21:[Windows][GCC 7.2.0][64 bit] 10bit
  33. Encoding settings : cpuid=1173503 / frame-threads=3 / numa-pools=8 / wpp / no-pmode / no-pme / no-psnr / no-ssim / log-level=2 / input-csp=1 / input-res=1920x1080 / interlace=0 / total-frames=35133 / level-idc=0 / high-tier=1 / uhd-bd=0 / ref=3 / no-allow-non-conformance / no-repeat-headers / annexb / no-aud / no-hrd / info / hash=0 / no-temporal-layers / open-gop / min-keyint=23 / keyint=250 / bframes=4 / b-adapt=2 / b-pyramid / bframe-bias=0 / rc-lookahead=20 / lookahead-slices=6 / scenecut=40 / no-intra-refresh / ctu=64 / min-cu-size=8 / no-rect / no-amp / max-tu-size=32 / tu-inter-depth=1 / tu-intra-depth=1 / limit-tu=0 / rdoq-level=0 / dynamic-rd=0.00 / no-ssim-rd / signhide / no-tskip / nr-intra=0 / nr-inter=0 / no-constrained-intra / strong-intra-smoothing / max-merge=2 / limit-refs=3 / no-limit-modes / me=1 / subme=2 / merange=57 / temporal-mvp / weightp / no-weightb / no-analyze-src-pics / deblock=0:0 / sao / no-sao-non-deblock / rd=3 / no-early-skip / rskip / no-fast-intra / no-tskip-fast / no-cu-lossless / no-b-intra / no-splitrd-skip / rdpenalty=0 / psy-rd=2.00 / psy-rdoq=0.00 / no-rd-refine / analysis-reuse-mode=0 / no-lossless / cbqpoffs=0 / crqpoffs=0 / rc=crf / crf=21.0 / qcomp=0.60 / qpstep=4 / stats-write=0 / stats-read=0 / ipratio=1.40 / pbratio=1.30 / aq-mode=1 / aq-strength=1.00 / cutree / zone-count=0 / no-strict-cbr / qg-size=32 / no-rc-grain / qpmax=69 / qpmin=0 / no-const-vbv / sar=1 / overscan=0 / videoformat=5 / range=0 / colorprim=2 / transfer=2 / colormatrix=2 / chromaloc=0 / display-window=0 / max-cll=0,0 / min-luma=0 / max-luma=1023 / log2-max-poc-lsb=8 / vui-timing-info / vui-hrd-info / slices=1 / opt-qp-pps / opt-ref-list-length-pps / no-multi-pass-opt-rps / scenecut-bias=0.05 / no-opt-cu-delta-qp / no-aq-motion / no-hdr / no-hdr-opt / no-dhdr10-opt / analysis-reuse-level=5 / scale-factor=0 / refine-intra=0 / refine-inter=0 / refine-mv=0 / no-limit-sao / ctu-info=0 / no-lowpass-dct / refine-mv-type=0
  34. Default : Yes
  35. Forced : No
  36.  
  37. Audio
  38. ID : 2
  39. Format : AAC
  40. Format/Info : Advanced Audio Codec
  41. Format profile : LC
  42. Codec ID : A_AAC-2
  43. Duration : 24 min 19 s
  44. Bit rate : 144 kb/s
  45. Channel(s) : 2 channels
  46. Channel positions : Front: L R
  47. Sampling rate : 48.0 kHz
  48. Frame rate : 46.875 FPS (1024 SPF)
  49. Compression mode : Lossy
  50. Delay relative to video : 9 ms
  51. Stream size : 24.6 MiB (12%)
  52. Language : Japanese
  53. Default : Yes
  54. Forced : No
  55.  
  56. Text
  57. ID : 3
  58. Format : ASS
  59. Codec ID : S_TEXT/ASS
  60. Codec ID/Info : Advanced Sub Station Alpha
  61. Duration : 23 min 40 s
  62. Bit rate : 168 b/s
  63. Count of elements : 469
  64. Compression mode : Lossless
  65. Stream size : 29.1 KiB (0%)
  66. Language : English
  67. Default : Yes
  68. Forced : No
  69.  
  70. Menu
  71. 00:00:00.000 : en:Part A
  72. 00:02:22.015 : en:Part B
  73. 00:07:25.652 : en:Part C
  74. 00:08:06.693 : en:Part D
  75. 00:10:54.986 : en:Opening
  76. 00:22:38.022 : en:Preview
RAW Paste Data